[ Сегодня на трекере фрилич! Идет свободное скачивание без начисления Download ]

От праздника к празднику (2014) SATRip

 

Создавать темы 21-Дек-2014 05:29

-От праздника к празднику (2014) SATRip- Год выпуска: 2014
Производство: Россия, продюсерский центр "Фабула"
Жанр: Мелодрама
Перевод: Не требуется
Субтитры: Отсутствуют
Дата российской премьеры: 19 декабря 2014
Режиссер: Алексей Карелин
Актеры: Евгения Осипова, Алексей Янин, Наталья Лесниковская, Андрей Сенькин
Описание фильма:
Лёля мечтает о красивой и богатой жизни. Перед ее глазами постоянный пример ее подруги Шуши, удачно вышедшей замуж за бизнесмена Васю. Однако обстоятельства складываются так, что Лёля принимает ответственность за маму, за брата, за невестку, за племянника. И неожиданно для себя она понимает, что настоящее богатство — это любовь…

Продолжительность: 01:30:09
Качество видео: SATRip
Видеокодек: Xvid
Битрейт видео: ~1800 Кбит/с
Размер кадра: 720x400
Аудиокодек: AC3 2.0
Битрейт аудио: 2 ch, 192 Кбит/с
Сэмпл: Скачать

Mediainfo:

General
Complete name                  : \Ot.prazdnika.k.prazdniku.SATRip.avi
Format                         : AVI
Format/Info                    : Audio Video Interleave
File size                      : 1.26 GiB
Duration                       : 1h 30mn
Overall bit rate               : 2 002 Kbps
Writing application            : VirtualDubMod 1.5.10.3 | [url=http://www.virtualdub-fr.org]www.virtualdub-fr.org[/url] || (build 2550/release)
Writing library                : VirtualDubMod build 2550/release
Video
ID                             : 0
Format                         : MPEG-4 Visual
Format profile                 : Advanced [email protected]
Format settings, BVOP          : 2
Format settings, QPel          : No
Format settings, GMC           : No warppoints
Format settings, Matrix        : Default (H.263)
Codec ID                       : XVID
Codec ID/Hint                  : XviD
Duration                       : 1h 30mn
Bit rate                       : 1 800 Kbps
Width                          : 720 pixels
Height                         : 400 pixels
Display aspect ratio           : 16:9
Frame rate                     : 25.000 fps
Color space                    : YUV
Chroma subsampling             : 4:2:0
Bit depth                      : 8 bits
Scan type                      : Progressive
Compression mode               : Lossy
Bits/(Pixel*Frame)             : 0.250
Stream size                    : 1.13 GiB (90%)
Writing library                : XviD 1.2.1 (UTC 2008-12-04)
Audio
ID                             : 1
Format                         : AC-3
Format/Info                    : Audio Coding 3
Mode extension                 : CM (complete main)
Codec ID                       : 2000
Duration                       : 1h 30mn
Bit rate mode                  : Constant
Bit rate                       : 192 Kbps
Channel(s)                     : 2 channels
Channel positions              : Front: L R
Sampling rate                  : 48.0 KHz
Bit depth                      : 16 bits
Compression mode               : Lossy
Stream size                    : 124 MiB (10%)
Alignment                      : Split accross interleaves
Interleave, duration           : 40 ms (1.00 video frame)
Interleave, preload duration   : 500 ms
Скриншоты:
-Время раздачи: 24/7 до 5-ти скачавших
Яндекс.Метрика
Рейтинг@Mail.ru