Марина Журавлёва - The Best (2007) [WavPack|Lossless]<Pop>

 

Создавать темы 21-Дек-2014 21:59

-Марина Журавлёва - The Best (2007)- Год: 2007
Жанр: Pop
Продолжительность: 01:11:49
Производитель диска: Украина
Тип рипа: image+.cue
Кодек: WavPack
Битрейт: Lossless
Треклист:
01. Третий лишний
02. Белая черемуха
03. Пусть говорят
04. Я не могу не любить
05. Прощай, любовь моя
06. Розовый рассвет
07. Забудь меня, забудь
08. На сердце рана у меня
09. Алые гвоздики
10. Снежинка
11. Дождь
12. Если ты со мною рядом
13. На замок
14. Твоя любовь
15. А я не плачу
16. Океан одиночества
17. Погасла яркая звезда
18. Играй, гитара
19. Еще вчера

Отчёт ЕАС&#58;

Exact Audio Copy V0.99 prebeta 5 from 4. May 2009
Отчёт EAC об извлечении, выполненном 31. августа 2009, 10:39
Марина Журавлёва / The Best
Дисковод: HL-DT-STDVD-ROM GDR8161B Adapter: 0 ID: 0
Режим чтения : Достоверность
Использование точного потока : Да
Отключение кэша аудио : Да
Использование указателей C2 : Нет
Коррекция смещения при чтении : 102
Способность читать области Lead-in и Lead-out : Нет
Заполнение пропущенных сэмплов тишиной : Да
Удаление блоков с тишиной в начале и конце : Нет
При вычислениях CRC использовались нулевые сэмплы : Да
Интерфейс : Установленный внешний ASPI-интерфейс
Выходной формат : Внутренние WAV-операции
Формат сэмплов : 44.100 Гц; 16 бит; стерео
TOC извлечённого CD
Трек | Старт | Длительность | Начальный сектор | Конечный сектор
---------------------------------------------------------------------
1 | 0:00.00 | 3:25.39 | 0 | 15413
2 | 3:25.39 | 3:50.01 | 15414 | 32664
3 | 7:15.40 | 4:18.01 | 32665 | 52015
4 | 11:33.41 | 3:45.23 | 52016 | 68913
5 | 15:18.64 | 2:49.49 | 68914 | 81637
6 | 18:08.38 | 3:11.31 | 81638 | 95993
7 | 21:19.69 | 3:26.22 | 95994 | 111465
8 | 24:46.16 | 4:11.25 | 111466 | 130315
9 | 28:57.41 | 4:23.52 | 130316 | 150092
10 | 33:21.18 | 3:31.20 | 150093 | 165937
11 | 36:52.38 | 3:03.38 | 165938 | 179700
12 | 39:56.01 | 3:30.59 | 179701 | 195509
13 | 43:26.60 | 3:19.37 | 195510 | 210471
14 | 46:46.22 | 4:18.63 | 210472 | 229884
15 | 51:05.10 | 4:28.64 | 229885 | 250048
16 | 55:33.74 | 4:18.32 | 250049 | 269430
17 | 59:52.31 | 4:06.35 | 269431 | 287915
18 | 63:58.66 | 3:46.52 | 287916 | 304917
19 | 67:45.43 | 4:03.68 | 304918 | 323210
Характеристики диапазона извлечения и сообщения об ошибках
Выбранный диапазон
Имя файла E:\Lossless\Марина Журавлева\(2007) Марина Журавлёва - The Best\Марина Журавлёва - The Best.wav
Пиковый уровень 100.0 %
Качество диапазона 100.0 %
CRC теста F823A2B3
CRC копии F823A2B3
Копирование... OK
Ошибок не произошло
AccurateRip: сводка
Трек 1 нет в базе данных
Трек 2 нет в базе данных
Трек 3 нет в базе данных
Трек 4 нет в базе данных
Трек 5 нет в базе данных
Трек 6 нет в базе данных
Трек 7 нет в базе данных
Трек 8 нет в базе данных
Трек 9 нет в базе данных
Трек 10 нет в базе данных
Трек 11 нет в базе данных
Трек 12 нет в базе данных
Трек 13 нет в базе данных
Трек 14 нет в базе данных
Трек 15 нет в базе данных
Трек 16 нет в базе данных
Трек 17 нет в базе данных
Трек 18 нет в базе данных
Трек 19 нет в базе данных
Ни одного трека нет в базе AccurateRip
Конец отчёта

Отчёт auCDtect Task manager&#58;

-----------------------
DON'T MODIFY THIS FILE
-----------------------
PERFORMER: auCDtect Task Manager, ver. 1.6.0 RC1 build 1.6.0.1
Copyright (c) 2008-2010 y-soft. All rights reserved
http://y-soft.org
ANALYZER: auCDtect: CD records authenticity detector, version 0.8.2
Copyright (c) 2004 Oleg Berngardt. All rights reserved.
Copyright (c) 2004 Alexander Djourik. All rights reserved.
FILE: (2007) Марина Журавлева - The Best.iso.wv
  Size: 485561952 Hash: C7A1E2568F5218C6FC6984E68022BC55 Accuracy: -m0
  Conclusion: CDDA 100%
  Signature: 0D4A4ABF83DE1AD7EE9B6D317270338A5F38F84D
-
Яндекс.Метрика
Рейтинг@Mail.ru