[ Сегодня на трекере фрилич! Идет свободное скачивание без начисления Download ]

Валерий Сюткин - Новое и Лучшее (2010) [FLAC|Lossless]<Pop>

 

Создавать темы 21-Дек-2014 21:59

-Валерий Сюткин - Новое и Лучшее (2010)- Год: 2010
Жанр: Pop
Продолжительность: 01:13:21
Тип рипа: image+.cue
Кодек: FLAC
Битрейт: Lossless
Треклист:
01. Красавчик
02. Маршрутка
03. Гитара , Ты и Рок-н-Ролл
04. Иду На Грозу
05. Солнце
06. Огни
07. Для Тебя
08. Гуру
09. 7 Тысяч Над Землей
10. Я-то что надо
11. Вверх и Вниз
12. Черные Очки
13. Радио Ночных Дорог
14. 42 Минуты
15. На Краю Заката
16. Далеко
17. Оркестр Заводной Луны
18. 001
19. День Святого Валентина
20. Арина Балерина

Отчёт ЕАС&#58;

Exact Audio Copy V0.99 prebeta 5 from 4. May 2009
Отчёт EAC об извлечении, выполненном 27. июля 2010, 22:45
Валерий Сюткин / Новое и Лучшее
Дисковод: SlimtypeDVD A DS8A2S   Adapter: 1  ID: 0
Режим чтения                 : Достоверность
Использование точного потока : Да
Отключение кэша аудио        : Да
Использование указателей C2  : Нет
Коррекция смещения при чтении                     : 6
Способность читать области Lead-in и Lead-out     : Нет
Заполнение пропущенных сэмплов тишиной            : Да
Удаление блоков с тишиной в начале и конце        : Нет
При вычислениях CRC использовались нулевые сэмплы : Да
Интерфейс                                         : Встроенный Win32-интерфейс для Win NT/2000
Выходной формат          : Пользовательский кодировщик
Выбранный битрейт        : 768 kBit/s
Качество                 : Высокий
Добавление ID3-тэга      : Нет
Утилита сжатия           : C:\Program Files\Exact Audio Copy\FLAC\FLAC.EXE
Дополнительные параметры : -6 -V -T "ARTIST=%a" -T "TITLE=%t" -T "ALBUM=%g" -T "DATE=%y" -T "TRACKNUMBER=%n" -T "GENRE=%m" -T "COMMENT=%e" %s -o %d
TOC извлечённого CD
     Трек |   Старт  | Длительность | Начальный сектор | Конечный сектор
    ---------------------------------------------------------------------
       1  |  0:00.00 |    3:13.53   |           0      |      14527
       2  |  3:13.53 |    3:21.44   |       14528      |      29646
       3  |  6:35.22 |    3:18.60   |       29647      |      44556
       4  |  9:54.07 |    3:37.17   |       44557      |      60848
       5  | 13:31.24 |    3:27.57   |       60849      |      76430
       6  | 16:59.06 |    2:53.02   |       76431      |      89407
       7  | 19:52.08 |    3:46.01   |       89408      |     106358
       8  | 23:38.09 |    4:04.03   |      106359      |     124661
       9  | 27:42.12 |    3:30.35   |      124662      |     140446
      10  | 31:12.47 |    3:53.03   |      140447      |     157924
      11  | 35:05.50 |    4:20.01   |      157925      |     177425
      12  | 39:25.51 |    5:00.64   |      177426      |     199989
      13  | 44:26.40 |    3:17.65   |      199990      |     214829
      14  | 47:44.30 |    2:58.10   |      214830      |     228189
      15  | 50:42.40 |    5:07.37   |      228190      |     251251
      16  | 55:50.02 |    2:20.67   |      251252      |     261818
      17  | 58:10.69 |    3:57.08   |      261819      |     279601
      18  | 62:08.02 |    3:26.09   |      279602      |     295060
      19  | 65:34.11 |    3:11.44   |      295061      |     309429
      20  | 68:45.55 |    4:35.57   |      309430      |     330111
Характеристики диапазона извлечения и сообщения об ошибках
Выбранный диапазон
     Имя файла D:\EAC\Валерий Сюткин - Новое и Лучшее (2010 CD Land) (Loosless)\Валерий Сюткин - Новое и Лучшее.wav
     Пиковый уровень 97.0 %
     Качество диапазона 99.9 %
     CRC теста C6843795
     CRC копии C6843795
     Копирование... OK
Ошибок не произошло
AccurateRip: сводка
Трек  1  нет в базе данных
Трек  2  нет в базе данных
Трек  3  нет в базе данных
Трек  4  нет в базе данных
Трек  5  нет в базе данных
Трек  6  нет в базе данных
Трек  7  нет в базе данных
Трек  8  нет в базе данных
Трек  9  нет в базе данных
Трек 10  нет в базе данных
Трек 11  нет в базе данных
Трек 12  нет в базе данных
Трек 13  нет в базе данных
Трек 14  нет в базе данных
Трек 15  нет в базе данных
Трек 16  нет в базе данных
Трек 17  нет в базе данных
Трек 18  нет в базе данных
Трек 19  нет в базе данных
Трек 20  нет в базе данных
Ни одного трека нет в базе AccurateRip
Конец отчёта

Отчёт auCDtect Task manager&#58;

-----------------------
DON'T MODIFY THIS FILE
-----------------------
PERFORMER: auCDtect Task Manager, ver. 1.6.0 RC1 build 1.6.0.1
Copyright (c) 2008-2010 y-soft. All rights reserved
http://y-soft.org
ANALYZER: auCDtect: CD records authenticity detector, version 0.8.2
Copyright (c) 2004 Oleg Berngardt. All rights reserved.
Copyright (c) 2004 Alexander Djourik. All rights reserved.
FILE: Валерий Сюткин - Новое и Лучшее.flac
  Size: 517317223 Hash: 830B9BE1444AB91FAB09E59D456FC63B Accuracy: -m0
  Conclusion: CDDA 100%
  Signature: 523F1C451E87E62544ABFB5AD4D7EB59EFC55EDD
-
Яндекс.Метрика
Рейтинг@Mail.ru