Тайна Рагнарока / Gaten Ragnarok (2013) BDRip [720p]

 

Создавать темы 24-Дек-2014 10:38

-Тайна Рагнарока / Gaten Ragnarok (2013) BDRip- Год выпуска: 2013
Производство: Норвегия, Fantefilm, Film i Vst, Ghost VFX
Жанр: Фэнтези, Приключения, Боевик
Перевод: Двуголосый закадровый, любительский [DeadSno & den904]
Субтитры: Вшитые (отключаемые)
Язык субтитров: Русские, английские
Дата мировой премьеры: 30 августа 2013

Режиссер: Миккель Бренне Саннемусе
Продюсер: Рой Андерсон
Актеры: Пал Сверре Валхейм Хэйген, Николай Клеве Брок, София Хелин, Мария Аннетт Таннерёд Берглю, Юлиан Подольски, Бьёрн Сундквист

Описание фильма:
Главный герой – археолог Сигурд Свендсен, подобно знаменитому Индиане Джонсу, одержим идеей разгадать загадку далёкого прошлого. Его главный интерес – Осебергский корабль эпохи викингов. Учёный предполагает, что давно известное науке захоронение, где был найден корабль, таит в себе ещё одну, самую главную загадку, а именно – проливает свет на миф о Рагнароке, конце мира. А когда его приятель Аллан сообщает ему об обнаруженном в далёком Финнмарке руническом камне, который может подсказать разгадку тайны, ничто не может остановить Сигурда. Вместе с двумя своими детьми он, вопреки их желанию провести каникулы в тёплых странах, отправляется на самый север, в «ничейную» землю близ норвежско-российской границы. Их сопровождают Аллан, его подруга Элисабет и знаток местных достопримечательностей Лейф. Там героев ждут захватывающие приключения и встречи с неведомым…

Продолжительность: 01:41:07
Качество видео: BDRip
Видеокодек: MPEG-4 AVC/H.264
Битрейт видео: ~4512 Кбит/с
Размер кадра: 1280x534

Аудио 1: Русский DTS, 6 ch, 1510 Кбит/с
Аудио 2: Норвежский DTS, 6 ch, 1510 Кбит/с-

MediaInfo:

General
Complete name : E:\Ragnarok.2013.BDRip.720p.mkv
Format : Matroska
File size : 5.43 GiB
Duration : 1h 41mn
Overall bit rate : 7 684 Kbps
Encoded date : UTC 2014-02-26 18:20:22
Writing application : mkvmerge v6.7.0 ('Back to the Ground') 64bit built on Jan 8 2014 15:10:52
Writing library : libebml v1.3.0 + libmatroska v1.4.1
Video
ID : 1
Format : AVC
Format/Info : Advanced Video Codec
Format profile : [url=mailto:[email protected]][email protected][/url]
Format settings, CABAC : Yes
Format settings, ReFrames : 12 frames
Muxing mode : Container [email protected]
Codec ID : V_MPEG4/ISO/AVC
Duration : 1h 41mn
Bit rate : 4 512 Kbps
Width : 1 280 pixels
Height : 534 pixels
Display aspect ratio : 2.35:1
Frame rate : 24.000 fps
Resolution : 8 bits
Colorimetry : 4:2:0
Scan type : Progressive
Bits/(Pixel*Frame) : 0.275
Stream size : 3.19 GiB (59%)
Audio #1
ID : 2
Format : DTS
Format/Info : Digital Theater Systems
Codec ID : A_DTS
Duration : 1h 41mn
Bit rate mode : Constant
Bit rate : 1 510 Kbps
Channel(s) : 6 channels
Channel positions : Front: L C R, Surround: L R, LFE
Sampling rate : 48.0 KHz
Resolution : 24 bits
Stream size : 1.07 GiB (20%)
Title : Влад и Снежинка
Language : Russian
Audio #2
ID : 3
Format : DTS
Format/Info : Digital Theater Systems
Codec ID : A_DTS
Duration : 1h 41mn
Bit rate mode : Constant
Bit rate : 1 510 Kbps
Channel(s) : 6 channels
Channel positions : Front: L C R, Surround: L R, LFE
Sampling rate : 48.0 KHz
Resolution : 24 bits
Stream size : 1.07 GiB (20%)
Language : Norwegian
Text #1
ID : 4
Format : UTF-8
Codec ID : S_TEXT/UTF8
Codec ID/Info : UTF-8 Plain Text
Title : Mannenr
Language : Russian
Text #2
ID : 5
Format : UTF-8
Codec ID : S_TEXT/UTF8
Codec ID/Info : UTF-8 Plain Text
Menu
00:00:00.000 : en:00:00:00.000
00:07:07.667 : en:00:07:07.667
00:16:23.167 : en:00:16:23.167
00:24:55.000 : en:00:24:55.000
00:33:32.542 : en:00:33:32.542
00:40:07.417 : en:00:40:07.417
00:52:19.250 : en:00:52:19.250
00:58:54.667 : en:00:58:54.667
01:07:07.000 : en:01:07:07.000
01:15:54.292 : en:01:15:54.292
01:26:06.375 : en:01:26:06.375
01:36:25.458 : en:01:36:25.458
-Скриншоты:
Яндекс.Метрика
Рейтинг@Mail.ru