Американский Папаша / American Dad / Сезон: 10 / Серии: 1-3 из 3 (Сет Макфарлейн / Seth MacFarlane) [2013 г., мультфильм, комедия, WEB-DL, 1080p] MVO [Filiza Studio] + Original (Eng) + Sub (eng)

 

Создавать темы 25-Дек-2014 06:09

Американский Папаша / American Dad- Производство: США , 20th Century Fox Television, Atlantic Creative, Fuzzy Door Productions
Жанр: мультфильм, комедия
Год выпуска: 2013 г.
Продолжительность: ~00:22:00
Перевод: Профессиональный (многоголосый, закадровый) [Filiza Studio]
Оригинальный аудиопоток: английский-Режиссер: Сет Макфарлейн / Seth MacFarlane
Роли озвучивали: Сет Макфарлейн, Венди Шаал, Рэйчел Макфарлейн, Скотт Гримес, Ди Бредлей Бейкер и другие-Описание:
Сюжет мультсериала разворачивается вокруг семьи Смитов. Папа Стэн — агент ЦРУ и республиканец до мозга костей, силен телом, но глуп разумом. Имеет мужественнейший подбородок и всегда выглаженный костюм. Франсин — жена Стэна и мать детей. Типичная домохозяйка. В меру мудрая, в меру глупая. К тому же, не знает своих настоящих родителей. Сын — Стив. У него есть определенные проблемы в общении с противоположным полом (девушки с ним общаются порой, только под дулом табельного оружия отца). Дочь Хэйли — отчаянная либералка, имеет «хиппарские» черты, но хиппи не является, хоть и защищает природу, и принимает легкие наркотики.
Говорящая золотая рыбка Клаусс — на самом деле, мозг у Рыбки — человеческий. Просто ЦРУ взяло мозг у Немецкого спортсмена-лыжника, чтобы Германия не выиграла олимпиаду. Часто перемещается по дому в маленькой баночке, перебирая плавниками по полу. Инопланетянин Роджер — просто инопланетянин. Когда-то спас Стэна в «Зоне 51» и теперь живет со Смитами. Толстый и хитрый — именно эти черты наиболее полно раскрыты в Роджере. Страстный любитель париков и выпивки.-Качество видео: WEB-DL 1080p
Контейнер: MKV
Видео кодек: AVC ([email protected])
Аудио кодек: AC-3
Видео: AVC at 5062 Кбит/сек: 1920 x 1080 (1.778) at 23.976 fps
Аудио Rus: AC-3 at 384 Кбит/сек: 6 каналов, 48,0 КГц |Filiza Studio|
Аудио Eng: AC-3 at 384 Кбит/сек: 6 каналов, 48,0 КГц |Original|
Cубтитры: английские (вшитые, отключаемые)
- -

Список серий:

  • Роджер передаёт бар (Roger Passes the Bar)
  • Мальчик по имени Майкл (A Boy Named Michael)
  • Блегснарст: История любви (Blagsnarst: A Love Story)
-

MediaInfo:

Общее
Уникальный идентификатор : 226420411004223426442851521103504994785 (0xAA56FC262A35D268BF8416F1B511F1E1)
Полное имя : E:\_Сериалы\_МультСериалы\Американский Папаша\American Dad (Season 10) WEB-DL 1080p\1. Roger Passes the Bar.mkv
Формат : Matroska
Версия формата : Version 4 / Version 2
Размер файла : 914 Мбайт
Продолжительность : 21 м.
Общий поток : 5949 Кбит/сек
Дата кодирования : UTC 2014-11-21 09:52:36
Программа кодирования : mkvmerge v6.9.1 ('Blue Panther') 64bit built on Apr 18 2014 18:23:38
Библиотека кодирования : libebml v1.3.0 + libmatroska v1.4.1
Видео
Идентификатор : 1
Формат : AVC
Формат/Информация : Advanced Video Codec
Профиль формата : [email protected]
Параметр CABAC формата : Да
Параметр ReFrames формата : 4 кадра
Идентификатор кодека : V_MPEG4/ISO/AVC
Продолжительность : 21 м.
Битрейт : 5062 Кбит/сек
Ширина : 1920 пикселей
Высота : 1080 пикселей
Соотношение сторон : 16:9
Режим частоты кадров : Постоянный
Частота кадров : 23,976 кадра/сек
Цветовое пространство : YUV
Субдискретизация насыщенности : 4:2:0
Битовая глубина : 8 бит
Тип развёртки : Прогрессивная
Бит/(Пиксели*Кадры) : 0.102
Размер потока : 777 Мбайт (85%)
Язык : English
Default : Да
Forced : Нет
Основные цвета : BT.709
Характеристики трансфера : BT.709
Коэффициенты матрицы : BT.709
Аудио #1
Идентификатор : 2
Формат : AC-3
Формат/Информация : Audio Coding 3
Расширение режима : CM (complete main)
Параметр Endianness формата : Big
Идентификатор кодека : A_AC3
Продолжительность : 21 м.
Вид битрейта : Постоянный
Битрейт : 384 Кбит/сек
Каналы : 6 каналов
Расположение каналов : Front: L C R, Side: L R, LFE
Частота : 48,0 КГц
Битовая глубина : 16 бит
Метод сжатия : С потерями
Размер потока : 59,0 Мбайт (6%)
Заголовок : Filiza
Язык : Russian
Default : Да
Forced : Нет
Аудио #2
Идентификатор : 3
Формат : AC-3
Формат/Информация : Audio Coding 3
Расширение режима : CM (complete main)
Параметр Endianness формата : Big
Идентификатор кодека : A_AC3
Продолжительность : 21 м.
Вид битрейта : Постоянный
Битрейт : 384 Кбит/сек
Каналы : 6 каналов
Расположение каналов : Front: L C R, Side: L R, LFE
Частота : 48,0 КГц
Битовая глубина : 16 бит
Метод сжатия : С потерями
Размер потока : 59,0 Мбайт (6%)
Язык : English
Default : Нет
Forced : Нет
Текст
Идентификатор : 4
Формат : UTF-8
Идентификатор кодека : S_TEXT/UTF8
Идентификатор кодека/Информация : UTF-8 Plain Text
Язык : English
Default : Нет
Forced : Нет
-

Скриншот c названием фильма

-Скриншоты:
-

Еще

-

Как закачать отдельный файл

1. Открыть торрент
2. Снять галки с тех файлов торрента, которые мы не хотим закачивать. Оставляем только на нужных нам файлах (файле).
3. Нажать О.К.
В клиенте utorrent
Инструкция
1) Открыть торрент

2) Снять галки с тех файлов торрента, которые мы не хотим закачивать:
* либо вручную, снимая с каждого файла галку( скрин №1)
* либо, нажав кнопку "Снять метки (Select None)", сняв сразу со всех файлов(скрин №2)
№1

№2

Оставляем только на нужных нам файлах (файле).

3)Нажать О.К
-Добавлена третья, заключительная, серия десятого сезона
Яндекс.Метрика
Рейтинг@Mail.ru