[ Сегодня на трекере фрилич! Идет свободное скачивание без начисления Download ]

Рукопашный бой/ Tapped Out (Аллан Ангар / Allan Ungar) [2014 г., Боевик, Драма, HDRip] VO [R.A.I.M]

 

Создавать темы 25-Дек-2014 06:50

-Рукопашный бой/ Tapped Out--
Производство: Канада
Год выпуска: 2014 г.
Жанр: Боевик, Драма
Продолжительность: 01:48:36
Мировая премьера: 23 апреля 2014
Перевод: Любительский (одноголосый, закадровый) [R.A.I.M]
Режиссер: Аллан Ангар / Allan Ungar-В ролях:
Майкл Бин, Ник Бейтман, Мартин Коув, Кшиштоф Сошинский, Андерсон Сильва, Джесс Браун, Коуди Хэкмен, Лиото Мачида, Келли-Мари Мерта-Описание:
Раздраженный подросток, посланный на общественную работу в школу Каратэ, входит в турнир MMA, чтобы встретиться с человеком, который убил его родителей...
-
Качество видео: HDRip
Контейнер: AVI
Видео кодек: XviD
Аудио кодек: AC3
Видео: 720x304; 1723 kbps; 23,976 fps; 0.328 Bit/Pixel
Аудио: 192 kbps; 2 ch; 48.0 kHz

Media Info

Формат : AVI
Формат/Информация : Audio Video Interleave
Размер файла : 1,46 Гбайт
Продолжительность : 1 ч. 48 м.
Общий поток : 1925 Кбит/сек
Программа кодирования : VirtualDubMod 1.5.10.2 (build 2540/release)
Библиотека кодирования : VirtualDubMod build 2540/release
Видео
Идентификатор : 0
Формат : MPEG-4 Visual
Профиль формата : Advanced [email protected]
Параметр BVOP формата : 3
Параметр QPel формата : Нет
Параметр GMC формата : Без точки перехода
Параметр матрицы формата : Default (MPEG)
Идентификатор кодека : XVID
Идентификатор кодека/Подсказка : XviD
Продолжительность : 1 ч. 48 м.
Битрейт : 1723 Кбит/сек
Ширина : 720 пикселей
Высота : 304 пикселя
Соотношение сторон : 2,40:1
Соотношение сторон в оригинале : 2,35:1
Частота кадров : 23,976 кадра/сек
Цветовое пространство : YUV
Субдискретизация насыщенности : 4:2:0
Битовая глубина : 8 бит
Тип развёртки : Прогрессивная
Метод сжатия : С потерями
Бит/(Пиксели*Кадры) : 0.328
Размер потока : 1,31 Гбайт (90%)
Библиотека кодирования : XviD 64
Аудио
Идентификатор : 1
Формат : AC-3
Формат/Информация : Audio Coding 3
Расширение режима : CM (complete main)
Параметр Endianness формата : Big
Идентификатор кодека : 2000
Продолжительность : 1 ч. 48 м.
Вид битрейта : Постоянный
Битрейт : 192 Кбит/сек
Каналы : 2 канала
Расположение каналов : Front: L R
Частота : 48,0 КГц
Битовая глубина : 16 бит
Метод сжатия : С потерями
Размер потока : 149 Мбайт (10%)
Выравнивание : Разделение по промежуткам
Продолжительность промежутка : 42 мс. (1,00 видеокадр)
Время предзагрузки промежутка : 500 мс.

Яндекс.Метрика
Рейтинг@Mail.ru