[ Сегодня на трекере фрилич! Идет свободное скачивание без начисления Download ]

Гангста Love / Rob the Mob (Рэймонд Де Фелитта / Raymond De Felitta) [2014 г., драма, криминал, WEB-Rip] Dub

 

Создавать темы 25-Дек-2014 06:51

-Гангста Love / Rob the Mob--
Производство: США
Год выпуска: 2014 г.
Жанр: драма, криминал
Продолжительность: 01:39:54
Мировая премьера: 15 марта 2014
Российская премьера: 10 апреля 2014, «Наше Кино»
Дата выхода DVD: 3 июня 2014, «CD Land»
Перевод: Профессиональный (полное дублирование) [чистый звук]
Режиссер: Рэймонд Де Фелитта / Raymond De Felitta-В ролях: Майкл Питт, Нина Арианда, Энди Гарсиа, Рэй Романо, Берт Янг, Гриффин Данн, Майкл Рисполи, Аида Туртурро, Фрэнк Уэйли, Кэти Мориарти-Описание: Парочка молодых влюбленных, мечтая скопить деньги на свадьбу, решает совершить серию дерзких ограблений клубов, где собираются мафиози. Их план прост — чтобы они ни натворили, мафия не будет жаловаться в полицию. Местные «братаны» не могут поверить своим глазам, когда их обчищают до нитки какие-то «сопляки». Больше того, случайно, у них похищают важную улику, которой очень интересуется ФБР. Теперь за налетчиками начинается настоящая охота…
-
Качество видео: WEB-Rip
Контейнер: AVI
Видео кодек: DivX
Аудио кодек: AC3
Видео: 720x304; 1741 kbps; 25.000 fps; 0.318 Bits/Pixel
Аудио: 192 kbps; 2 ch; 44.1 KHz

Media Info

General
Complete name : D:\Torrents\Rоb.the.Mоb.(2014).D.WEBDLRip.1400MB.avi
Format : AVI
Format/Info : Audio Video Interleave
File size : 1.36 GiB
Duration : 1h 39mn
Overall bit rate : 1 942 Kbps
Writing application : VirtualDubMod 1.5.10.3 | www.virtualdub-fr.org || (build 2550/release)
Writing library : VirtualDubMod build 2550/release
Video
ID : 0
Format : MPEG-4 Visual
Format profile : Advanced [email protected]
Format settings, BVOP : Yes
Format settings, QPel : No
Format settings, GMC : No warppoints
Format settings, Matrix : Default (MPEG)
Codec ID : XVID
Codec ID/Hint : XviD
Duration : 1h 39mn
Bit rate : 1 741 Kbps
Width : 720 pixels
Height : 304 pixels
Display aspect ratio : 2.35:1
Frame rate : 25.000 fps
Color space : YUV
Chroma subsampling : 4:2:0
Bit depth : 8 bits
Scan type : Progressive
Compression mode : Lossy
Bits/(Pixel*Frame) : 0.318
Stream size : 1.21 GiB (90%)
Writing library : XviD 1.2.1 (UTC 2008-12-04)
Audio
ID : 1
Format : AC-3
Format/Info : Audio Coding 3
Mode extension : CM (complete main)
Format settings, Endianness : Big
Codec ID : 2000
Duration : 1h 39mn
Bit rate mode : Constant
Bit rate : 192 Kbps
Channel(s) : 2 channels
Channel positions : Front: L R
Sampling rate : 44.1 KHz
Bit depth : 16 bits
Compression mode : Lossy
Stream size : 137 MiB (10%)
Alignment : Split accross interleaves
Interleave, duration : 40 ms (1.00 video frame)
Interleave, preload duration : 500 ms

Скриншоты


Яндекс.Метрика
Рейтинг@Mail.ru