Сен-Лоран. Стиль – это я / Saint Laurent (Бертран Бонелло / Bertrand Bonello) [2014 г., драма, биография, WEB-DLRip] Dub (Чистый звук)

 

Создавать темы 27-Дек-2014 07:44

-Сен-Лоран. Стиль – это я / Saint Laurent- Производство: Франция, Бельгия
Год выпуска: 2014 г.
Жанр: драма, биография
Продолжительность: 02:30:23
Мировая премьера: 17 мая 2014
Российская премьера: 16 октября 2014, «A-One Films», «Наше Кино»
Перевод: Профессиональный (полное дублирование) [Чистый звук]-Режиссер: Бертран Бонелло / Bertrand Bonello
В ролях: Гаспар Ульель, Жереми Ренье, Луи Гаррель, Леа Сейду, Амира Касар, Эмилин Валаде, Хельмут Бергер, Миша Лекот, Валерия Бруни-Тедески, Валери Донзелли-Описание: Конец 1960-х, модный дом молодого Ива Сен-Лорана процветает, а сам дизайнер переживает пьянящий успех и отчаяние. На богемных парижских вечеринках, в Марракеше, в полотнах Уорхолла и книгах Пруста Сен-Лоран ищет и ответы на вопросы, и вдохновение. Но лишь такому утонченному режиссеру, как Бертран Бонелло, удается не только рассказать историю уникального модельера, но и создать портрет эпохи с её диалогами, непомерными развлечениями и умением любой ценой проживать каждый момент жизни красиво.- -Качество видео: WEB-DLRip
Контейнер: AVI
Видео кодек: XviD
Аудио кодек: AC3
Видео: 720x400 (1.80:1), 24 fps, XviD build 50 ~1171 kbps avg, 0.17 bit/pixel
Аудио: 44.1 kHz, AC3 Dolby Digital, 2/0 (L,R) ch, ~128 kbps
Cубтитры: отсутствуют

Media Info

General
Complete name : D:\Saint Laurent.2014.D.WEB-DLRip.avi
Format : AVI
Format/Info : Audio Video Interleave
File size : 1.37 GiB
Duration : 2h 30mn
Overall bit rate : 1 309 Kbps
Writing application : VirtualDubMod 1.5.10.2 (build 2540/release)
Writing library : VirtualDubMod build 2540/release
Video
ID : 0
Format : MPEG-4 Visual
Format profile : Advanced [email protected]
Format settings, BVOP : 2
Format settings, QPel : No
Format settings, GMC : No warppoints
Format settings, Matrix : Default (MPEG)
Codec ID : XVID
Codec ID/Hint : XviD
Duration : 2h 30mn
Bit rate : 1 171 Kbps
Width : 720 pixels
Height : 400 pixels
Display aspect ratio : 16:9
Frame rate : 24.000 fps
Color space : YUV
Chroma subsampling : 4:2:0
Bit depth : 8 bits
Scan type : Progressive
Compression mode : Lossy
Bits/(Pixel*Frame) : 0.169
Stream size : 1.23 GiB (89%)
Writing library : XviD 1.2.1 (UTC 2008-12-04)
Audio
ID : 1
Format : AC-3
Format/Info : Audio Coding 3
Mode extension : CM (complete main)
Format settings, Endianness : Big
Codec ID : 2000
Duration : 2h 30mn
Bit rate mode : Constant
Bit rate : 128 Kbps
Channel(s) : 2 channels
Channel positions : Front: L R
Sampling rate : 44.1 KHz
Bit depth : 16 bits
Compression mode : Lossy
Stream size : 138 MiB (10%)
Alignment : Split accross interleaves
Interleave, duration : 42 ms (1.00 video frame)
Interleave, preload duratio : 500 ms

Скриншоты

Яндекс.Метрика
Рейтинг@Mail.ru