(Hard Rock) VA - Herman Rarebell & Friends (Herman's Scorpions Songs) - 2014 [FLAC, image+.cue, lossless]

 

Создавать темы 29-Дек-2014 16:00

-Herman Rarebell & Friends (Herman's Scorpions Songs)-- Год издания: 2014
Страна: n/a
Жанр: Hard Rock
Продолжительность: 00:52:33-Лейбл издания: SolidRock House
Тип альбома: Compilation
Страна-выпуска диска: Germany
Номер по каталогу: SRR 200132
Формат: FLAC
Битрейт аудио: lossless
Тип рипа: image+.cue
Наличие сканов в содержимом раздачи: да
-

Трэклист

01.Herman Rarebell & Friends - 01. Rock Of You Like A Hurricane (Bobby Kimball of TOTO) (04:09)
02.Herman Rarebell & Friends - 02. Passion Rules The Game (John Parr) (03:48)
03.Herman Rarebell & Friends - 03. Loving You Sunday Morning (Michael Voss of MAD MAX) (03:34)
04.Herman Rarebell & Friends - 04. Is There Anybody There? (Alex Ligertwood of SANTANA) (04:06)
05.Herman Rarebell & Friends - 05. You Give Me All I Need (Don Dokken of DOKKEN) (03:35)
06.Herman Rarebell & Friends - 06. Make It Real (Doogie White of RAINBOW, MICHAEL SCHENKER) (03:44)
07.Herman Rarebell & Friends - 07. Dynamite (Johnny Gioeli of AXEL RUDI PELL) (02:53)
08.Herman Rarebell & Friends - 08. Arizona (Thomas Perry) (03:20)
09.Herman Rarebell & Friends - 09. Love Is Blind (Paul Shortino of QUIET RIOT) (03:41)
10.Herman Rarebell & Friends - 10. Don't Make No Promises (Jack Russell of GREAT WHITE) (03:02)
11.Herman Rarebell & Friends - 11. Falling In Love (Gary Barden of MICHAEL SCHENKER GROUP) (04:05)
12.Herman Rarebell & Friends - 12. Another Piece Of Meat (Tony Martin of BLACK SABBATH) (03:35)
13.Herman Rarebell & Friends - 13. Animal Magnetism (Michael Nagy) (05:17)
14.Herman Rarebell & Friends - 14. Let It Shine (Al Crespo of UNBREAKABLE) (03:37)

Лог создания рипа

Exact Audio Copy V1.0 beta 3 from 29. August 2011
EAC extraction logfile from 20. December 2014, 10:37
Herman Rarebell & Friends / Herman's Scorpions Songs
Used drive  : PLEXTOR BD-R   PX-B940SA   Adapter: 5  ID: 0
Read mode               : Secure
Utilize accurate stream : Yes
Defeat audio cache      : Yes
Make use of C2 pointers : No
Read offset correction                      : 667
Overread into Lead-In and Lead-Out          : No
Fill up missing offset samples with silence : Yes
Delete leading and trailing silent blocks   : No
Null samples used in CRC calculations       : Yes
Used interface                              : Installed external ASPI interface
Used output format              : User Defined Encoder
Selected bitrate                : 128 kBit/s
Quality                         : High
Add ID3 tag                     : Yes
Command line compressor         : G:\Program Files (x86)\Exact Audio Copy\Flac\flac.exe
Additional command line options : -V -8 -T "Date=%year%" -T "Genre=%genre%" %source%
TOC of the extracted CD
Track |   Start  |  Length  | Start sector | End sector
---------------------------------------------------------
1  |  0:00.00 |  4:09.40 |         0    |    18714
2  |  4:09.40 |  3:48.62 |     18715    |    35876
3  |  7:58.27 |  3:34.55 |     35877    |    51981
4  | 11:33.07 |  4:06.48 |     51982    |    70479
5  | 15:39.55 |  3:35.38 |     70480    |    86642
6  | 19:15.18 |  3:44.23 |     86643    |   103465
7  | 22:59.41 |  2:53.42 |    103466    |   116482
8  | 25:53.08 |  3:20.34 |    116483    |   131516
9  | 29:13.42 |  3:41.35 |    131517    |   148126
10  | 32:55.02 |  3:02.36 |    148127    |   161812
11  | 35:57.38 |  4:05.70 |    161813    |   180257
12  | 40:03.33 |  3:35.32 |    180258    |   196414
13  | 43:38.65 |  5:17.31 |    196415    |   220220
14  | 48:56.21 |  3:37.24 |    220221    |   236519
Range status and errors
Selected range
Filename D:\MUSIC\Herman Rarebell & Friends - Herman's Scorpions Songs.wav
Peak level 98.8 %
Extraction speed 4.7 X
Range quality 99.9 %
Test CRC D1180B43
Copy CRC D1180B43
Copy OK
No errors occurred
AccurateRip summary
Track  1  not present in database
Track  2  not present in database
Track  3  not present in database
Track  4  not present in database
Track  5  not present in database
Track  6  not present in database
Track  7  not present in database
Track  8  not present in database
Track  9  not present in database
Track 10  not present in database
Track 11  not present in database
Track 12  not present in database
Track 13  not present in database
Track 14  not present in database
None of the tracks are present in the AccurateRip database
End of status report

Индексная карта (non-compilant .cue)

REM GENRE Rock
REM DATE 2014
REM DISCID C90C510E
REM COMMENT "ExactAudioCopy v1.0b3"
PERFORMER "Herman Rarebell & Friends"
TITLE "Herman's Scorpions Songs"
FILE "Herman Rarebell & Friends - Herman's Scorpions Songs.flac" WAVE
TRACK 01 AUDIO
TITLE "01. Rock Of You Like A Hurricane (Bobby Kimball of TOTO)"
PERFORMER "Herman Rarebell & Friends"
INDEX 01 00:00:00
TRACK 02 AUDIO
TITLE "02. Passion Rules The Game (John Parr)"
PERFORMER "Herman Rarebell & Friends"
INDEX 00 04:09:15
INDEX 01 04:09:40
TRACK 03 AUDIO
TITLE "03. Loving You Sunday Morning (Michael Voss of MAD MAX)"
PERFORMER "Herman Rarebell & Friends"
INDEX 00 07:57:69
INDEX 01 07:58:27
TRACK 04 AUDIO
TITLE "04. Is There Anybody There? (Alex Ligertwood of SANTANA)"
PERFORMER "Herman Rarebell & Friends"
INDEX 00 11:32:49
INDEX 01 11:33:07
TRACK 05 AUDIO
TITLE "05. You Give Me All I Need (Don Dokken of DOKKEN)"
PERFORMER "Herman Rarebell & Friends"
INDEX 00 15:39:24
INDEX 01 15:39:55
TRACK 06 AUDIO
TITLE "06. Make It Real (Doogie White of RAINBOW, MICHAEL SCHENKER)"
PERFORMER "Herman Rarebell & Friends"
INDEX 00 19:15:03
INDEX 01 19:15:18
TRACK 07 AUDIO
TITLE "07. Dynamite (Johnny Gioeli of AXEL RUDI PELL)"
PERFORMER "Herman Rarebell & Friends"
INDEX 00 22:59:30
INDEX 01 22:59:41
TRACK 08 AUDIO
TITLE "08. Arizona (Thomas Perry)"
PERFORMER "Herman Rarebell & Friends"
INDEX 00 25:52:59
INDEX 01 25:53:08
TRACK 09 AUDIO
TITLE "09. Love Is Blind (Paul Shortino of QUIET RIOT)"
PERFORMER "Herman Rarebell & Friends"
INDEX 00 29:13:31
INDEX 01 29:13:42
TRACK 10 AUDIO
TITLE "10. Don't Make No Promises (Jack Russell of GREAT WHITE)"
PERFORMER "Herman Rarebell & Friends"
INDEX 01 32:55:02
TRACK 11 AUDIO
TITLE "11. Falling In Love (Gary Barden of MICHAEL SCHENKER GROUP)"
PERFORMER "Herman Rarebell & Friends"
INDEX 00 35:57:33
INDEX 01 35:57:38
TRACK 12 AUDIO
TITLE "12. Another Piece Of Meat (Tony Martin of BLACK SABBATH)"
PERFORMER "Herman Rarebell & Friends"
INDEX 00 40:03:26
INDEX 01 40:03:33
TRACK 13 AUDIO
TITLE "13. Animal Magnetism (Michael Nagy)"
PERFORMER "Herman Rarebell & Friends"
INDEX 00 43:38:23
INDEX 01 43:38:65
TRACK 14 AUDIO
TITLE "14. Let It Shine (Al Crespo of UNBREAKABLE)"
PERFORMER "Herman Rarebell & Friends"
INDEX 00 48:56:01
INDEX 01 48:56:21
--
Яндекс.Метрика
Рейтинг@Mail.ru