Частоты / OXV: The Manual (2013) WEB-DLRip

 

Создавать темы 30-Дек-2014 07:57

Частоты / OXV: The Manual (2013) WEB-DLRip- Год выпуска: 2013
Производство: Австралия, Великобритания
Жанр: Фантастика, мелодрама, детектив
Режиссер: Даррен Фишер
Актеры: Дэниэл Фрайзер, Элинор Уайлд, Дилан Ллевелин, Джорджина Минтер-Браун, Оуэн Паг, Дэвид Бротон Дейвис, Дэвид Барнеби, Тимоти Блок, Риа Кэрролл, Том Инглэнд
Описание фильма:
Не слишком отдаленное будущее. Детей оценивают не только по интеллекту, но и по фреквенции — особой характеристике, показывающей резонанс ребенка с судьбой. Высокая фреквенция — и ты никогда не опоздаешь на поезд, даже если специально выйдешь на час позже. А по пути еще найдешь банкноту в 20 фунтов. Низкая — и все трудности этого мира словно собираются против тебя одного. Даже просто прийти на экзамен вовремя — большая проблема. А что, если парень с супернизкой фреквенцией встретит девушку с супервысокой? Что, если законы вселенной устроены так, что они не могут быть рядом больше одной минуты? Главный герой находит способ изменить свою фреквенцию, чтобы увеличить этот лимит, но обнаруживает весьма странный побочный эффект…
Перевод: Профессиональный многоголосый
Субтитры: Отсутствуют

Продолжительность: 01:44:55
Качество видео: WEB-DLRip
Видеокодек: XviD
Битрейт видео: ~1945 Кбит/с
Размер кадра: 720x400
Аудио:
1. AC3, 2 ch, 448 Кбит/с - русский
2. AC3, 2 ch, 384 Кбит/с - английский

MediaInfo:

Общее
Полное имя : C:\NNM\Частоты\Chastoty 2013 WEB-DLRip.avi
Формат : AVI
Формат/Информация : Audio Video Interleave
Профиль формата : OpenDML
Размер файла : 2,05 Гбайт
Продолжительность : 1 ч. 44 м.
Общий поток : 2796 Кбит/сек
Программа кодирования : VirtualDubMod 1.5.10.2 (build 2540/release)
Библиотека кодирования : VirtualDubMod build 2540/release
Видео
Идентификатор : 0
Формат : MPEG-4 Visual
Профиль формата : Advanced [email protected]
Параметр BVOP формата : 2
Параметр QPel формата : Нет
Параметр GMC формата : Без точки перехода
Параметр матрицы формата : Default (MPEG)
Идентификатор кодека : XVID
Идентификатор кодека/Подсказка : XviD
Продолжительность : 1 ч. 44 м.
Битрейт : 1945 Кбит/сек
Ширина : 720 пикселей
Высота : 400 пикселей
Соотношение сторон : 16:9
Частота кадров : 25,000 кадров/сек
Цветовое пространство : YUV
Субдискретизация насыщенности : 4:2:0
Битовая глубина : 8 бит
Тип развёртки : Прогрессивная
Метод сжатия : С потерями
Бит/(Пиксели*Кадры) : 0.270
Размер потока : 1,43 Гбайт (70%)
Библиотека кодирования : XviD 1.2.1 (UTC 2008-12-04)
Аудио #1
Идентификатор : 1
Формат : AC-3
Формат/Информация : Audio Coding 3
Расширение режима : CM (complete main)
Идентификатор кодека : 2000
Продолжительность : 1 ч. 44 м.
Вид битрейта : Постоянный
Битрейт : 448 Кбит/сек
Каналы : 2 канала
Расположение каналов : Front: L R
Частота : 48,0 КГц
Битовая глубина : 16 бит
Метод сжатия : С потерями
Размер потока : 336 Мбайт (16%)
Выравнивание : Разделение по промежуткам
Продолжительность промежутка : 40 мс. (1,00 видеокадр)
Время предзагрузки промежутка : 500 мс.
Аудио #2
Идентификатор : 2
Формат : AC-3
Формат/Информация : Audio Coding 3
Расширение режима : CM (complete main)
Идентификатор кодека : 2000
Продолжительность : 1 ч. 44 м.
Вид битрейта : Постоянный
Битрейт : 384 Кбит/сек
Каналы : 2 канала
Расположение каналов : Front: L R
Частота : 44,1 КГц
Битовая глубина : 16 бит
Метод сжатия : С потерями
Размер потока : 288 Мбайт (14%)
Выравнивание : Разделение по промежуткам
Продолжительность промежутка : 40 мс. (1,00 видеокадр)
Время предзагрузки промежутка : 500 мс.
:ogo:
Скриншоты:-Время раздачи:Круглосуточно до 10 скачавших
Яндекс.Метрика
Рейтинг@Mail.ru