Моцарт в джунглях / Mozart in the Jungle / Сезон: 1 / Серии: 5 из 10 (Пол Вайц / Paul Weitz) [2014 г., комедия, ..., WEB-DL 720p] MVO (AlexFilm) + Original (Eng) [обновляемая]

 

Создавать темы 01-Янв-2015 07:34

-Моцарт в джунглях / Mozart in the Jungleu-- Производство: США
Жанр: комедия, ...
Год выпуска: 2014 г.-Премьера (мир): 6 февраля 2014-Озвучка: Студия
Перевод: Многоголосый закадровый, профессиональный
Оригинальный аудиопоток: английский-Перевод: Константин Кривоногов
Озвучка: Татьяна Манетина, Михаил Суслов, Владимир Курдов, Константин Погодаев
Монтаж и сведение звука: Михаил Шорыгин
Обложка: tvblog-Режиссер: Пол Вайц / Paul Weitz-В ролях: Лола Кёрк, Саффрон Берроуз, Питер Вак, Гаэль Гарсиа Берналь, Бернадетт Питерс, Малкольм МакДауэлл, Константин Марулись, Боб Диши, Джошуа Белл, Ханна Данн, ...-Описание:
Сериал рассказывает историю гобоистки Хэйли и её злоключений в Нью-Йорке. Будут и секс, и разнузданные вечеринки, и уроки игры на гобое, и соблазнительные танцоры балета, и чего только не будет. И всё это, разумеется, с классической музыкой фоном, и выступлениями в Нью-Йоркской Филармонии под руководством старого дирижёра Томаса, и нового дирижёра Родриго-Сезон: 1
Серии: 5 из 10 серий
Продолжительность: ~ 00:28:00 мин серия-Качество видео: WEB-DL 720p
Контейнер: MKV
Видео кодек: AVC ([email protected])
Аудио кодек: AC-3
Видео: AVC at 3573 Кбит/сек: 1280 x 720 (1.778) at 23.976 fps: 0.16 Бит/Пиксели
Аудио Rus: AC-3 at 640 Кбит/сек: 6 каналов, 48,0 КГц |AlexFilm|
Аудио Eng: AC-3 at 640 Кбит/сек: 6 каналов, 48,0 КГц |Original|
Cубтитры: отсутствуют
- -

Список серий:

  • Пилотная (Pilot)
  • Пятый стул (Fifth Chair)
  • Тихая симфония (Silent Symphony)
  • Вы оскорбили Чайковского (You Have Insulted Tchaikovsky)
  • Я с маэстро (I'm with the Maestro)


  • (The Rehearsal)

  • (You Go to My Head)

  • (Mozart with the Bacon)

  • (Now Fortissimo)

  • (Opening Night)

Media Info

Общее
Уникальный идентификатор : 199404371365734415015322467985165014759 (0x9603E28E68DB9AE7AA2C8F14656E56E7)
Полное имя : E:\_Сериалы\_Сериалы\Моцарт в джунглях\Mozart in the Jungle - Season 1 (AlexFilm) 720p\Mozart.in.the.Jungle.s01e01.WEBRip.720p.Rus.Eng.AlexFilm.mkv
Формат : Matroska
Версия формата : Version 4 / Version 2
Размер файла : 1024 Мбайт
Продолжительность : 28 м.
Общий поток : 4951 Кбит/сек
Название фильма : Mozart in the Jungle 1x01 Pilot @ AlexFilm
Дата кодирования : UTC 2014-12-25 20:34:38
Программа кодирования : mkvmerge v6.6.0 ('The Edge Of The In Between') built on Dec 1 2013 17:55:00
Библиотека кодирования : libebml v1.3.0 + libmatroska v1.4.1
Видео
Идентификатор : 1
Формат : AVC
Формат/Информация : Advanced Video Codec
Профиль формата : [email protected]
Параметр CABAC формата : Да
Параметр ReFrames формата : 9 кадров
Идентификатор кодека : V_MPEG4/ISO/AVC
Продолжительность : 28 м.
Битрейт : 3573 Кбит/сек
Ширина : 1280 пикселей
Высота : 720 пикселей
Соотношение сторон : 16:9
Режим частоты кадров : Постоянный
Частота кадров : 23,976 кадра/сек
Цветовое пространство : YUV
Субдискретизация насыщенности : 4:2:0
Битовая глубина : 8 бит
Тип развёртки : Прогрессивная
Бит/(Пиксели*Кадры) : 0.162
Размер потока : 739 Мбайт (72%)
Библиотека кодирования : x264 core 142 r2389 956c8d8
Настройки программы : cabac=1 / ref=9 / deblock=1:-3:-2 / analyse=0x3:0x133 / me=umh / subme=10 / psy=1 / psy_rd=0.95:0.00 / mixed_ref=1 / me_range=48 / chroma_me=1 / trellis=2 / 8x8dct=1 / cqm=0 / deadzone=21,11 / fast_pskip=0 / chroma_qp_offset=-2 / threads=12 / lookahead_threads=2 / sliced_threads=0 / nr=0 / decimate=0 / interlaced=0 / bluray_compat=0 / constrained_intra=0 / bframes=7 / b_pyramid=2 / b_adapt=2 / b_bias=0 / direct=3 / weightb=1 / open_gop=0 / weightp=2 / keyint=250 / keyint_min=24 / scenecut=40 / intra_refresh=0 / rc_lookahead=250 / rc=crf / mbtree=1 / crf=17.0 / qcomp=0.65 / qpmin=0 / qpmax=69 / qpstep=4 / vbv_maxrate=38000 / vbv_bufsize=30000 / crf_max=0.0 / nal_hrd=none / filler=0 / ip_ratio=1.40 / aq=1:0.80
Язык : English
Default : Да
Forced : Нет
Аудио #1
Идентификатор : 2
Формат : AC-3
Формат/Информация : Audio Coding 3
Расширение режима : CM (complete main)
Параметр Endianness формата : Big
Идентификатор кодека : A_AC3
Продолжительность : 28 м.
Вид битрейта : Постоянный
Битрейт : 640 Кбит/сек
Каналы : 6 каналов
Расположение каналов : Front: L C R, Side: L R, LFE
Частота : 48,0 КГц
Битовая глубина : 16 бит
Метод сжатия : С потерями
Размер потока : 132 Мбайт (13%)
Заголовок : DD5.1 AlexFilm
Язык : Russian
Default : Да
Forced : Нет
Аудио #2
Идентификатор : 3
Формат : AC-3
Формат/Информация : Audio Coding 3
Расширение режима : CM (complete main)
Параметр Endianness формата : Big
Идентификатор кодека : A_AC3
Продолжительность : 28 м.
Вид битрейта : Постоянный
Битрейт : 640 Кбит/сек
Каналы : 6 каналов
Расположение каналов : Front: L C R, Side: L R, LFE
Частота : 48,0 КГц
Битовая глубина : 16 бит
Метод сжатия : С потерями
Задержка видео : 20 мс.
Размер потока : 132 Мбайт (13%)
Заголовок : DD5.1 Original
Язык : English
Default : Нет
Forced : Нет
Текст
Идентификатор : 4
Формат : UTF-8
Идентификатор кодека : S_TEXT/UTF8
Идентификатор кодека/Информация : UTF-8 Plain Text
Язык : English
Default : Нет
Forced : Нет
-

Скриншот c названием фильма

-Скриншоты:
-

ЕщЕ:

-

Внимание! Раздача ведётся путём добавления новых серий!

Раздача ведётся путём добавления новых серий; при каждом добавлении создаётся новый торрент.
Чтобы начать докачку новой серии, пользователям необходимо сделать следующее:
1. остановить скачивание,
2. удалить старый торрент у себя из клиента (старые серии удалять не надо),
3. скачать новый торрент и запустить его у себя в клиенте вместо старого, при этом указать клиенту путь в старую папку, куда и должно происходить скачивание новых серий.
Ваш клиент при этом должен произвести хеширование (проверку) старой папки (если не производит сам - помогите ему сделать это), и будет докачивать только те серии которых у вас ещё нет. Старые серии при этом не удаляются, а продолжают раздаваться!
Eсли вы уже удалили старые серии, то предотвратить повторную закачку старых серий можно, отжав галочку в соответствующих местах при запуске нового торрента. По возможности, желательно не удалять старые серии как можно дольше, чтобы релизёр не столько продолжал раздавать старые серии, а смог сконцентрироваться на новых.
Совет для тех, кто не хочет ждать перехеширования:
Создайте ещё одну папку рядом с папкой сериала (рядом, а не в ней!!!). Каждую новую серию после удачной загрузки копируйте в новую папку так чтобы ваша основная папка всегда была пуста. Когда ваш новый торрент предложит вам закачать все файлы, выберете только последнюю. Для сидирования же укажите адрес новой папки.
Как закачать отдельный файл из торрента или докачать ранее пропущенные файлы торрента!
-

Как закачать отдельный файл

1. Открыть торрент
2. Снять галки с тех файлов торрента, которые мы не хотим закачивать. Оставляем только на нужных нам файлах (файле).
3. Нажать О.К.
В клиенте utorrent
Инструкция
1) Открыть торрент

2) Снять галки с тех файлов торрента, которые мы не хотим закачивать:
* либо вручную, снимая с каждого файла галку( скрин №1)
* либо, нажав кнопку "Снять метки (Select None)", сняв сразу со всех файлов(скрин №2)
№1

№2

Оставляем только на нужных нам файлах (файле).

3)Нажать О.К
Добавлена пятая серия первого сезона
Яндекс.Метрика
Рейтинг@Mail.ru