Новогодний парад звезд (2014.12.31) SATRip

 

Создавать темы 03-Янв-2015 12:42

- Новогодний парад звезд (2014.12.31) SATRip - Режиссер / Телекомпания:
Россия
Русское название: Новогодний парад звезд
Год выпуска: 2014
Жанр: ТВ-Шоу
Описание:
Новый год – время дарить подарки. И сегодня гостинцы телезрителям приготовили все звезды!
Ближе к полуночи, предваряя бой курантов, когда страна провожает старый год, телеканал "Россия" соберет всех поющих, танцующих и пародирующих артистов в "Новогоднем параде звезд", чтобы вспомнить все лучшее, что было на нашей эстраде и телевидении в уходящем году.
Николай Басков и Юлия Савичева исполнят "Гимн салату оливье". Максим Галкин и Юрий Стоянов предстанут в образах Жириновского и Псаки, а Вячеслав Войнаровский, Александр Морозов и Николай Бандурин превратятся в "Джентльменов удачи".
Марина Девятова, Денис Майданов, Александр и Валерий Пономаренко отметят "Новый год на работе", а друзья Лев Лещенко и Владимир Винокур по-прежнему уверены, что "Без женщин жить нельзя на свете".
На сцене также: Иосиф Кобзон, Валерия, Филипп Киркоров, Оксана Федорова, Олег Газманов, Владимир Данилец, Владимир Моисеенко, Юрий Гальцев, Ефим Шифрин, Юрий Аскаров, Лолита, Анастасия Стоцкая, Юлия Ковальчук, Юрий Стоянов, Стас Дужников, Елена Воробей, Дмитрий Губерниев, Вячеслав Фетисов, Наташа Королева, Сергей Агапкин, Анна Семенович, Карен Аванесян и другие.
Ведущий: Максим Галкин, Филипп Киркоров, Тимур Родригез, Алексей Чумаков
Продолжительность: ~ 01:36:49
Видеокодек: XviD
Битрейт видео: ~1802 kb/s
Размер кадра: 720 x 400
Качество видео: SATRip
Аудиокодек: AC-3, 2ch.
Битрейт аудио: 192 kb/s

MediaInfo

Формат : AVI
Формат/Информация : Audio Video Interleave
Размер файла : 1,35 Гбайт
Продолжительность : 1 ч. 36 м.
Общий поток : 2000 Кбит/сек
Программа кодирования : VirtualDubMod 1.5.10.3 | www.virtualdub-fr.org || (build 2550/release)
Библиотека кодирования : VirtualDubMod build 2550/release
Видео
Идентификатор : 0
Формат : MPEG-4 Visual
Профиль формата : Advanced [email protected]
Параметр BVOP формата : 2
Параметр QPel формата : Нет
Параметр GMC формата : Без точки перехода
Параметр матрицы формата : Default (H.263)
Идентификатор кодека : XVID
Идентификатор кодека/Подсказка : XviD
Продолжительность : 1 ч. 36 м.
Битрейт : 1799 Кбит/сек
Ширина : 720 пикселей
Высота : 400 пикселей
Соотношение сторон : 16:9
Частота кадров : 25,000 кадров/сек
Цветовое пространство : YUV
Субдискретизация насыщенности : 4:2:0
Битовая глубина : 8 бит
Тип развёртки : Прогрессивная
Метод сжатия : С потерями
Бит/(Пиксели*Кадры) : 0.250
Размер потока : 1,22 Гбайт (90%)
Библиотека кодирования : XviD 1.2.1 (UTC 2008-12-04)
Аудио
Идентификатор : 1
Формат : AC-3
Формат/Информация : Audio Coding 3
Расширение режима : CM (complete main)
Параметр Endianness формата : Big
Идентификатор кодека : 2000
Продолжительность : 1 ч. 36 м.
Вид битрейта : Постоянный
Битрейт : 192 Кбит/сек
Каналы : 2 канала
Расположение каналов : Front: L R
Частота : 48,0 КГц
Битовая глубина : 16 бит
Метод сжатия : С потерями
Размер потока : 133 Мбайт (10%)
Выравнивание : Разделение по промежуткам
Продолжительность промежутка : 40 мс. (1,00 видеокадр)
Время предзагрузки промежутка : 500 мс.
Скриншоты:--Время раздачи: 24/7. До первых 5 скачавших. Новогодний парад звезд на DDGroupClub
Яндекс.Метрика
Рейтинг@Mail.ru