Натали – Платье на бретелях [2014 г.] (Pop) [HDTVRip, 1080p]

 

Создавать темы 04-Янв-2015 16:31

-Натали – Платье на бретелях-- Год выпуска: 2014 г.
Страна: Россия
Жанр: Pop
Продолжительность: 00:04:18-Качество видео: HDTVRip
Контейнер: MP4
Стандарт разрешения: 1080p
Видео кодек: H.264
Аудио кодек: AAC
Видео: 1920x1080, 7811 kbps, 25,000 fps, 0,151 bit/pic
Аудио: AAC, 48,0 kHz, 317 kbps, 2Ch
-Описание:
Главную мужскую роль в клипе исполнил Дмитрий Харатьян. Для съемок Натали не пожалела роскоши. Клип снимали в Санкт-Петербурге, в интерьерах Юсуповского дворца. Все актеры, задействованные в ролике, оделись в пышные платья и фраки, а сама Натали предстала перед зрителями в голубом наряде с вышивкой из жемчуга. Натали призналась, что позвала на съемки Дмитрия Харатьяна не случайно. Во-первых, на протяжении многих лет артистов связывает крепкая дружба, а во-вторых, действие клипа певицы происходит в 19 веке, во времена гардемаринов. По словам звезды, ей показалось, что Харатьян как никто другой подойдет на роль главного героя.-

Media Info

Общее
Полное имя                               : D:\Torrent files\Натали – Платье на бретелях.mp4
Формат                                   : MPEG-4
Профиль формата                          : Base Media / Version 2
Идентификатор кодека                     : mp42
Размер файла                             : 250 Мбайт
Продолжительность                        : 4 м. 18 с.
Режим общего битрейта                    : Переменный
Общий поток                              : 8132 Кбит/сек
Дата кодирования                         : UTC 2014-10-10 11:58:30
Дата пометки                             : UTC 2014-10-10 11:58:33
©TIM                                     : 00:00:00:00
©TSC                                     : 25
©TSZ                                     : 1
Видео
Идентификатор                            : 1
Формат                                   : AVC
Формат/Информация                        : Advanced Video Codec
Профиль формата                          : [email protected]
Параметр CABAC формата                   : Да
Параметр ReFrames формата                : 3 кадра
Параметр GOP формата                     : M=4, N=25
Идентификатор кодека                     : avc1
Идентификатор кодека/Информация          : Advanced Video Coding
Продолжительность                        : 4 м. 18 с.
Вид битрейта                             : Переменный
Битрейт                                  : 7811 Кбит/сек
Максимальный битрейт                     : 12,0 Мбит/сек
Ширина                                   : 1920 пикселей
Высота                                   : 1080 пикселей
Соотношение сторон                       : 16:9
Режим частоты кадров                     : Постоянный
Частота кадров                           : 25,000 кадров/сек
Стандарт вещания                         : PAL
Цветовое пространство                    : YUV
Субдискретизация насыщенности            : 4:2:0
Битовая глубина                          : 8 бит
Тип развёртки                            : Прогрессивная
Бит/(Пиксели*Кадры)                      : 0.151
Размер потока                            : 241 Мбайт (96%)
Язык                                     : English
Дата кодирования                         : UTC 2014-10-10 11:58:30
Дата пометки                             : UTC 2014-10-10 11:58:30
colour_range                             : Limited
Аудио
Идентификатор                            : 2
Формат                                   : AAC
Формат/Информация                        : Advanced Audio Codec
Профиль формата                          : LC
Идентификатор кодека                     : 40
Продолжительность                        : 4 м. 18 с.
Продолжительность оригинала              : 4 м. 18 с.
Вид битрейта                             : Переменный
Битрейт                                  : 317 Кбит/сек
Максимальный битрейт                     : 372 Кбит/сек
Каналы                                   : 2 канала
Расположение каналов                     : Front: L R
Частота                                  : 48,0 КГц
Метод сжатия                             : С потерями
Размер потока                            : 9,78 Мбайт (4%)
Размер потока оригинала                  : 9,78 Мбайт (4%)
Язык                                     : English
Дата кодирования                         : UTC 2014-10-10 11:58:30
Дата пометки                             : UTC 2014-10-10 11:58:30

Скриншоты

--
Яндекс.Метрика
Рейтинг@Mail.ru