Правдивая ложь / True Lies (Джеймс Кэмерон / James Cameron) [1994 г., Боевик, Триллер, HDTVRip-AVC] AVO (Гаврилов, Пронин) + MVO + Original (Eng)

 

Создавать темы 05-Янв-2015 05:16

Правдивая ложь / True Lies
Год выпуска: 1994
Производство: США
Жанр: Боевик, Триллер
Продолжительность: 02:20:12
Перевод: Авторский (одноголосый, закадровый) Андрей Гаврилов
Перевод: Авторский (одноголосый, закадровый) Антон Пронин
Перевод: Профессиональный (многоголосый, закадровый) MVO
Оригинальный аудиопоток: английский
Субтитры: отсутствуют
Режиссер: Джеймс Кэмерон / James Cameron
В ролях: Арнольд Шварценеггер, Джейми Ли Кёртис, Том Арнольд, Билл Пэкстон, Тиа Каррере, Арт Малик, Элиза Душку, Грант Хеслов, Чарлтон Хестон, Маршалл Манеш
Описание: Для своей семьи Гарри Таскер — любящий муж и отец, человек скромный и рассеянный, обыкновенный продавец компьютеров, «не вылезающий» с работы ни днем, ни ночью. Но лишь немногие знают, что на самом деле Гарри — специальный агент тайной правительственной службы, специализирующийся на особо опасных заданиях, владеющий кучей языков, всеми видами оружия и всеми возможными способами «отправки» злодеев на тот свет.
Агент Таскер и дальше продолжал бы вести двойную жизнь, если бы зловещие арабские террористы не похитили Гарри, а вместе с ним и его ничего не подозревающую жену Хэлен. Но бандиты, к своему несчастью, даже не подозревали с кем связались. И Хэлен узнала, что муж ее совсем не компьютерщик, и что она пятнадцать лет прожила с человеком, рядом с которым мускулистый Рэмбо выглядит ребенком…
, КиноПоиск
Качество видео: HDTVRip-AVC
Контейнер: MKV
Видео кодек: H.264
Аудио кодек: AC3
Видео: 720x400, 23.976fps, 2240Kbps, 0.324 bt/px
Аудио : AC-3, 192 Kbps, 2 ch, 48.0 KHz Rus Гаврилов
Аудио : AC-3, 192 Kbps, 2 ch, 48.0 KHz Rus Пронин
Аудио : AC-3, 192 Kbps, 2 ch, 48.0 KHz Rus MVO
Аудио : AC-3, 192 Kbps, 2 ch, 48.0 KHz Original

Доп. информация

Рип сделан из HDTV 1080i open mate, найденный в сети.

Media Info

G:\загрузки\True_lies.mkv
General
Unique ID : 175530900587858819609710276275208545889 (0x840E05921CA9A9FB8BEA7C2D54F56661)
Complete name : G:\загрузки\True_lies.mkv
Format : Matroska
Format version : Version 1
File size : 2.94 GiB
Duration : 2h 20mn
Overall bit rate : 3 004 Kbps
Movie name : True Lies /James Cameron/ [HDTV-rip.720p.by Ghost-dog]
Encoded date : UTC 2015-01-04 09:16:38
Writing application : mkvmerge v2.5.3 ('Boogie') built on Mar 7 2009 15:00:41
Writing library : libebml v0.7.7 + libmatroska v0.8.1
Attachment : English soundtrack timecode fix file / Video timecode fix file / Yes / Yes
Video #1
ID : 1
Format : AVC
Format/Info : Advanced Video Codec
Format profile : [email protected]
Format settings, CABAC : Yes
Format settings, ReFrames : 9 frames
Codec ID : V_MPEG4/ISO/AVC
Duration : 2h 20mn
Bit rate : 2 240 Kbps
Width : 720 pixels
Height : 400 pixels
Display aspect ratio : 16:9
Frame rate mode : Constant
Frame rate : 23.976 fps
Color space : YUV
Chroma subsampling : 4:2:0
Bit depth : 8 bits
Scan type : Progressive
Bits/(Pixel*Frame) : 0.324
Stream size : 2.13 GiB (72%)
Writing library : x264 core 130 r2273 b3065e6
Encoding settings : cabac=1 / ref=9 / deblock=1:-1:-1 / analyse=0x3:0x133 / me=umh / subme=11 / psy=1 / psy_rd=1.00:0.15 / mixed_ref=1 / me_range=24 / chroma_me=1 / trellis=2 / 8x8dct=1 / cqm=0 / deadzone=21,11 / fast_pskip=0 / chroma_qp_offset=-3 / threads=6 / lookahead_threads=1 / sliced_threads=0 / nr=0 / decimate=0 / interlaced=0 / bluray_compat=0 / constrained_intra=0 / bframes=8 / b_pyramid=2 / b_adapt=2 / b_bias=0 / direct=3 / weightb=1 / open_gop=0 / weightp=2 / keyint=250 / keyint_min=23 / scenecut=40 / intra_refresh=0 / rc_lookahead=50 / rc=abr / mbtree=1 / bitrate=2240 / ratetol=1.0 / qcomp=0.60 / qpmin=0 / qpmax=51 / qpstep=4 / ip_ratio=1.40 / aq=1:1.00
Default : Yes
Forced : No
Audio #2
ID : 2
Format : AC-3
Format/Info : Audio Coding 3
Mode extension : CM (complete main)
Format settings, Endianness : Big
Codec ID : A_AC3
Duration : 2h 20mn
Bit rate mode : Constant
Bit rate : 192 Kbps
Channel(s) : 2 channels
Channel positions : Front: L R
Sampling rate : 48.0 KHz
Bit depth : 16 bits
Compression mode : Lossy
Stream size : 193 MiB (6%)
Title : AVO Гаврилов
Language : Russian
Default : Yes
Forced : No
Audio #3
ID : 3
Format : AC-3
Format/Info : Audio Coding 3
Mode extension : CM (complete main)
Format settings, Endianness : Big
Codec ID : A_AC3
Duration : 2h 20mn
Bit rate mode : Constant
Bit rate : 192 Kbps
Channel(s) : 2 channels
Channel positions : Front: L R
Sampling rate : 48.0 KHz
Bit depth : 16 bits
Compression mode : Lossy
Stream size : 193 MiB (6%)
Title : AVO Пронин
Language : Russian
Default : No
Forced : No
Audio #4
ID : 4
Format : AC-3
Format/Info : Audio Coding 3
Mode extension : CM (complete main)
Format settings, Endianness : Big
Codec ID : A_AC3
Duration : 2h 20mn
Bit rate mode : Constant
Bit rate : 192 Kbps
Channel(s) : 2 channels
Channel positions : Front: L R
Sampling rate : 48.0 KHz
Bit depth : 16 bits
Compression mode : Lossy
Stream size : 193 MiB (6%)
Title : MVO
Language : Russian
Default : No
Forced : No
Audio #5
ID : 5
Format : AC-3
Format/Info : Audio Coding 3
Mode extension : CM (complete main)
Format settings, Endianness : Big
Codec ID : A_AC3
Duration : 2h 20mn
Bit rate mode : Constant
Bit rate : 192 Kbps
Channel(s) : 2 channels
Channel positions : Front: L R
Sampling rate : 48.0 KHz
Bit depth : 16 bits
Compression mode : Lossy
Stream size : 193 MiB (6%)
Language : English
Default : No
Forced : No

log x.264

x264 [info]: frame I:1771  Avg QP:14.05  size: 54587
x264 [info]: frame P:48901 Avg QP:17.83 size: 23346
x264 [info]: frame B:150957 Avg QP:20.93 size: 7343
x264 [info]: consecutive B-frames: 2.0% 2.6% 9.6% 45.2% 19.2% 18.4% 1.6% 0.7% 0.6%
x264 [info]: mb I I16..4: 7.5% 65.6% 26.8%
x264 [info]: mb P I16..4: 1.1% 22.2% 4.2% P16..4: 21.5% 27.8% 15.5% 5.1% 1.0% skip: 1.6%
x264 [info]: mb B I16..4: 0.1% 3.4% 0.5% B16..8: 30.8% 24.8% 4.8% direct: 9.1% skip:26.4% L0:35.0% L1:38.4% BI:26.6%
x264 [info]: final ratefactor: 15.71
x264 [info]: 8x8 transform intra:80.4% inter:49.5%
x264 [info]: direct mvs spatial:100.0% temporal:0.0%
x264 [info]: coded y,uvDC,uvAC intra: 95.3% 80.2% 49.8% inter: 35.7% 25.3% 9.4%
x264 [info]: i16 v,h,dc,p: 19% 14% 17% 51%
x264 [info]: i8 v,h,dc,ddl,ddr,vr,hd,vl,hu: 14% 13% 7% 8% 10% 11% 11% 12% 14%
x264 [info]: i4 v,h,dc,ddl,ddr,vr,hd,vl,hu: 14% 14% 4% 8% 13% 13% 12% 10% 12%
x264 [info]: i8c dc,h,v,p: 30% 29% 22% 19%
x264 [info]: Weighted P-Frames: Y:6.9% UV:2.5%
x264 [info]: ref P L0: 46.2% 12.9% 19.2% 6.1% 5.3% 3.2% 3.2% 1.7% 1.9% 0.3% 0.0%
x264 [info]: ref B L0: 85.5% 8.0% 2.7% 1.5% 0.9% 0.8% 0.4% 0.2%
x264 [info]: ref B L1: 96.5% 3.5%
x264 [info]: kb/s:2232.54
x264 [total]: encoded 201629 frames, 9.65 fps, 2232.54 kb/s

Скриншоты

Яндекс.Метрика
Рейтинг@Mail.ru