[ Сегодня на трекере фрилич! Идет свободное скачивание без начисления Download ]

Честь и ярость 2: Враждебный захват / Rage And Honor 2: Hostile Takeover (Гай Норрис / Guy Norris) [1993 г., Боевик, триллер, драма, криминал, DVDRip-AVC] AVO (Дольский) + original (Eng)

 

Создавать темы 06-Янв-2015 06:31

Честь и ярость 2: Враждебный захват / Rage And Honor 2: Hostile Takeover
Год выпуска: 1993
Производство: Индонезия, США
Жанр: Боевик, триллер, драма, криминал
Продолжительность: 01:37:38
Перевод: Авторский (одноголосый, закадровый) Андрей Дольский
Оригинальный аудиопоток: английский
Субтитры: отсутствуют
Режиссер: Гай Норрис / Guy Norris
В ролях: Синтия Ротрок, Ричард Нортон, Патрик Малдун, Франс Тумбуа, Рон Врикен, Алекс Тумундо, Джон Дж. Суси, Танака, Йени Фарида,
Описание: На этот раз наши герои оказываются втянуты в смертельную схватку в экзотическом и опасном мире. Престон занимается совершенствованием своего боевого мастерства в Джакарте. Тем временем, Крис отправляется в Индонезию в качестве агента ЦРУ, чтобы расследовать операцию по отмывке денег.
Но встречавший ее связной убит и ей приходится устраиваться на работу в банк. Крис и Престон, каждый своим путем, оказываются вовлеченными в войну банд, борющихся за контроль над контрабандными операциями. При случайной встрече они и вида не подают, что знают друг друга.
Постоянно оказываясь по разную сторону баррикад, сражаясь то с одними, то с другими громилами местной мафии, Крис и Престон срывают преступные планы и захватывают вертолет с алмазами.
, КиноПоиск
Качество видео: DVDRip-AVC
Контейнер: MKV
Видео кодек: H.264
Аудио кодек: AC3
Видео: 640x480, 23.976fps, 2597 Kbps, 0.353 bt/px
Аудио : AC-3, 192 Kbps, 2 ch, 48.0 KHz Rus Дольский
Аудио : AC-3, 192 Kbps, 2 ch, 48.0 KHz Eng Original

Media Info

H:\КИНОФИЛЬМЫ\RAGE AND HONOR 2_HOSTILE TAKEOVER(ЧЕСТЬ И ЯРОСТЬ 2_ВРАЖДЕБНЫЙ ЗАХВАТ).mkv
General
Unique ID : 249493727182780795930431526369862805790 (0xBBB2BE778ED6972998F0B174230AE91E)
Complete name : H:\КИНОФИЛЬМЫ\RAGE AND HONOR 2_HOSTILE TAKEOVER(ЧЕСТЬ И ЯРОСТЬ 2_ВРАЖДЕБНЫЙ ЗАХВАТ).mkv
Format : Matroska
Format version : Version 1
File size : 2.07 GiB
Duration : 1h 37mn
Overall bit rate : 3 041 Kbps
Encoded date : UTC 2015-01-03 19:14:44
Writing application : mkvmerge v2.5.3 ('Boogie') built on Mar 7 2009 15:00:41
Writing library : libebml v0.7.7 + libmatroska v0.8.1
Video #1
ID : 1
Format : AVC
Format/Info : Advanced Video Codec
Format profile : [email protected]
Format settings, CABAC : Yes
Format settings, ReFrames : 9 frames
Codec ID : V_MPEG4/ISO/AVC
Duration : 1h 37mn
Bit rate : 2 597 Kbps
Width : 640 pixels
Height : 480 pixels
Display aspect ratio : 4:3
Frame rate mode : Constant
Frame rate : 23.976 fps
Color space : YUV
Chroma subsampling : 4:2:0
Bit depth : 8 bits
Scan type : Progressive
Bits/(Pixel*Frame) : 0.353
Stream size : 1.77 GiB (85%)
Writing library : x264 core 130 r2273 b3065e6
Encoding settings : cabac=1 / ref=9 / deblock=1:-1:-1 / analyse=0x3:0x133 / me=umh / subme=11 / psy=1 / psy_rd=1.00:0.15 / mixed_ref=1 / me_range=24 / chroma_me=1 / trellis=2 / 8x8dct=1 / cqm=0 / deadzone=21,11 / fast_pskip=1 / chroma_qp_offset=-3 / threads=6 / lookahead_threads=1 / sliced_threads=0 / nr=0 / decimate=1 / interlaced=0 / bluray_compat=0 / constrained_intra=0 / bframes=8 / b_pyramid=2 / b_adapt=2 / b_bias=0 / direct=1 / weightb=1 / open_gop=0 / weightp=2 / keyint=250 / keyint_min=23 / scenecut=40 / intra_refresh=0 / rc_lookahead=50 / rc=crf / mbtree=1 / crf=17.5 / qcomp=0.60 / qpmin=0 / qpmax=51 / qpstep=4 / ip_ratio=1.40 / aq=1:1.00
Language : English
Default : Yes
Forced : No
Audio #2
ID : 2
Format : AC-3
Format/Info : Audio Coding 3
Mode extension : CM (complete main)
Format settings, Endianness : Big
Codec ID : A_AC3
Duration : 1h 37mn
Bit rate mode : Constant
Bit rate : 192 Kbps
Channel(s) : 2 channels
Channel positions : Front: L R
Sampling rate : 48.0 KHz
Bit depth : 16 bits
Compression mode : Lossy
Stream size : 134 MiB (6%)
Title : AVO Дольский
Language : Russian
Default : Yes
Forced : No
Audio #3
ID : 3
Format : AC-3
Format/Info : Audio Coding 3
Format profile : Dolby Digital
Mode extension : CM (complete main)
Format settings, Endianness : Big
Codec ID : A_AC3
Duration : 1h 37mn
Bit rate mode : Constant
Bit rate : 192 Kbps
Channel(s) : 2 channels
Channel positions : Front: L R
Sampling rate : 48.0 KHz
Bit depth : 16 bits
Compression mode : Lossy
Stream size : 134 MiB (6%)
Language : English
Default : No
Forced : No

log x.264

x264 [info]: frame I:1225  Avg QP:16.42  size: 64367
x264 [info]: frame P:30472 Avg QP:19.31 size: 27697
x264 [info]: frame B:108765 Avg QP:21.82 size: 9383
x264 [info]: consecutive B-frames: 1.4% 1.6% 5.8% 37.4% 18.9% 21.0% 5.0% 7.6% 1.3%
x264 [info]: mb I I16..4: 5.5% 77.5% 17.0%
x264 [info]: mb P I16..4: 0.8% 22.8% 2.7% P16..4: 24.8% 31.3% 13.6% 2.8% 0.4% skip: 0.9%
x264 [info]: mb B I16..4: 0.1% 4.7% 0.3% B16..8: 35.6% 21.8% 3.5% direct:11.4% skip:22.7% L0:37.8% L1:38.1% BI:24.2%
x264 [info]: 8x8 transform intra:88.1% inter:61.7%
x264 [info]: coded y,uvDC,uvAC intra: 97.4% 92.9% 73.6% inter: 44.3% 41.9% 9.0%
x264 [info]: i16 v,h,dc,p: 30% 12% 13% 46%
x264 [info]: i8 v,h,dc,ddl,ddr,vr,hd,vl,hu: 11% 10% 9% 8% 12% 12% 12% 12% 14%
x264 [info]: i4 v,h,dc,ddl,ddr,vr,hd,vl,hu: 13% 11% 4% 7% 14% 14% 14% 10% 13%
x264 [info]: i8c dc,h,v,p: 40% 23% 20% 17%
x264 [info]: Weighted P-Frames: Y:6.2% UV:1.4%
x264 [info]: ref P L0: 36.6% 12.2% 24.0% 6.5% 7.3% 3.8% 4.6% 2.0% 2.8% 0.3% 0.0%
x264 [info]: ref B L0: 78.1% 12.0% 3.9% 2.3% 1.4% 1.3% 0.7% 0.3%
x264 [info]: ref B L1: 95.0% 5.0%
x264 [info]: kb/s:2653.84
x264 [total]: encoded 140462 frames, 9.87 fps, 2653.84 kb/s

Скриншоты

Яндекс.Метрика
Рейтинг@Mail.ru