[ Сегодня на трекере фрилич! Идет свободное скачивание без начисления Download ]

Игра / The Game (Серии: 1-4 из 6) (Toby Whithouse / Тоби Уитхаус) [2014, триллер, драма, шпионский, WEB-DLRip] MVO (ViruseProject) [Обновляемая]

 

Создавать темы 07-Янв-2015 04:53

Игра / The Game
Минисериал, эпизоды 1-4 из 6
Год выпуска: 2014
Страна: Великобритания, BBC
Жанр: триллер, драма, шпионский
Продолжительность: 6 серий по ~00:58
Перевод: Профессиональный многоголосый закадровый (ViruseProject)
Субтитры: Русские (CSS), английские
Режиссёр: Toby Whithouse / Тоби Уитхаус
В ролях: Tom Hughes / Том Хьюз, Brian Cox / Брайан Кокс, Paul Ritter / Пол Риттер, Shaun Dooley / Шон Дули, Chloe Pirrie / Хлои Пирри, Victoria Hamilton / Виктория Гамильтон, Jonathan Aris / Джонатан Арис, Judy Parfitt / Джуди Парфит
Описание: Глава британской контрразведки МИ-5, известный под именем "Папочка" (Брайан Кокс), создает комитет для проверки полученной от перебежчика Аркадия Малинова информации о существовании проводимой на территории Великобритании операции КГБ под названием "Стекло". В комитет вошли карьерист Бобби Уотерхауз (Пол Риттер), представитель спецотдела полиции Джим Фенчёрч (Пол Дули), специалист по прослушке Алан (Джонатан Арис), его супруга, Сара Монтаг (Виктория Гамильтон), специалист по поведенческому анализу, и Джо Ламбэ (Том Хьюз), агент, недавно проваливший задание в Польше.
Новый шпионский детектив от Тоби Уитхауса (Быть человеком, Доктор Кто), прекрасно передающий атмосферу "холодной войны" начала 70х годов 20го века.

Качество: WEB-DLRip
Формат: AVI
Видео кодек: XviD
Аудио кодек: MP3
Видео: Xvid 720x400 25fps ~1 600 Kbps ~0.21 bpf
Аудио Rus: MP3 48000Hz stereo, 2 канала 128kbps
Аудио Eng: MP3 48000Hz stereo, 2 канала 128kbps

Доп.информация:

Доп.информация: Это серии с iTunes, каждая примерно на 6 минут длиннее варианта, показанного по TV.
ВНИМАНИЕ! Раздача ведется путем добавления новых серий!
График пополнения - примерно 1 серия в неделю. В первую очередь график зависит от появления исходников с iTunes в свободном доступе.

Над релизом работали

Закадровое озвучание: Анастасия Домнина, Дмитрий Кравченко, Дмитрий Иванов
Перевод: Евгений Шаров
Редактор текста Анна Марченко
Сведение звука, монтаж: Дмитрий Иванов
Работа с видео: Евгений Шаров
Перевод стихотворения Хьюза Мирнза в 1й серии: Гурвич Владимир Александрович

MediaInfo

General
Complete name : D:\_DVDrip\The Game\The.Game.s01.WEB-DLrip.rus.MVO.ViruseProject\The.Game.s01e01.WEB-DLrip.rus.MVO.ViruseProject.avi
Format : AVI
Format/Info : Audio Video Interleave
File size : 744 MiB
Duration : 59mn 7s
Overall bit rate : 1 759 Kbps
Movie name : The Gamge / Игра эпизод 1
Writing application : VirtualDubMod 1.5.10.2 (build 2540/release)
Copyright : ViruseProject
Video
ID : 0
Format : MPEG-4 Visual
Format profile : Advanced [email protected]
Format settings, BVOP : Yes
Format settings, QPel : No
Format settings, GMC : No warppoints
Format settings, Matrix : Default (H.263)
Codec ID : XVID
Codec ID/Hint : XviD
Duration : 59mn 7s
Bit rate : 1 621 Kbps
Width : 720 pixels
Height : 400 pixels
Display aspect ratio : 16:9
Frame rate : 25.000 fps
Color space : YUV
Chroma subsampling : 4:2:0
Bit depth : 8 bits
Scan type : Progressive
Compression mode : Lossy
Bits/(Pixel*Frame) : 0.225
Stream size : 686 MiB (92%)
Writing library : XviD 1.2.1 (UTC 2008-12-04)
Audio
ID : 1
Format : MPEG Audio
Format version : Version 1
Format profile : Layer 3
Mode : Joint stereo
Mode extension : MS Stereo
Codec ID : 55
Codec ID/Hint : MP3
Duration : 59mn 7s
Bit rate mode : Constant
Bit rate : 128 Kbps
Channel count : 2 channels
Sampling rate : 48.0 KHz
Compression mode : Lossy
Stream size : 54.1 MiB (7%)
Alignment : Aligned on interleaves
Interleave, duration : 40 ms (1.00 video frame)
Interleave, preload duration : 504 ms
Language : Russian

Скриншоты

-

Внимание! Раздача ведётся путём добавления новых серий!

Раздача ведётся путём добавления новых серий; при каждом добавлении создаётся новый торрент.
Чтобы начать докачку новой серии, пользователям необходимо сделать следующее:
1. остановить скачивание,
2. удалить старый торрент у себя из клиента (старые серии удалять не надо),
3. скачать новый торрент и запустить его у себя в клиенте вместо старого, при этом указать клиенту путь в старую папку, куда и должно происходить скачивание новых серий.
Ваш клиент при этом должен произвести хеширование (проверку) старой папки (если не производит сам - помогите ему сделать это), и будет докачивать только те серии которых у вас ещё нет. Старые серии при этом не удаляются, а продолжают раздаваться!
Eсли вы уже удалили старые серии, то предотвратить повторную закачку старых серий можно, отжав галочку в соответствующих местах при запуске нового торрента. По возможности, желательно не удалять старые серии как можно дольше, чтобы релизёр не столько продолжал раздавать старые серии, а смог сконцентрироваться на новых.
Совет для тех, кто не хочет ждать перехеширования:
Создайте ещё одну папку рядом с папкой сериала (рядом, а не в ней!!!). Каждую новую серию после удачной загрузки копируйте в новую папку так чтобы ваша основная папка всегда была пуста. Когда ваш новый торрент предложит вам закачать все файлы, выберете только последнюю. Для сидирования же укажите адрес новой папки.
Как закачать отдельный файл из торрента или докачать ранее пропущенные файлы торрента!
-

Как закачать отдельный файл

1. Открыть торрент
2. Снять галки с тех файлов торрента, которые мы не хотим закачивать. Оставляем только на нужных нам файлах (файле).
3. Нажать О.К.
В клиенте utorrent
Инструкция
1) Открыть торрент

2) Снять галки с тех файлов торрента, которые мы не хотим закачивать:
* либо вручную, снимая с каждого файла галку( скрин №1)
* либо, нажав кнопку "Снять метки (Select None)", сняв сразу со всех файлов(скрин №2)
№1

№2

Оставляем только на нужных нам файлах (файле).

3)Нажать О.К
Яндекс.Метрика
Рейтинг@Mail.ru