В Париж! В Париж! (2014) WEB-DLRip [H.264]

 

Создавать темы 08-Янв-2015 11:45

-В Париж! В Париж! (2014) WEB-DLRip- Жанр: Короткометражный, Комедия, Музыкальный
Описание фильма:
Трое друзей мечтают о поездке в Париж, но мечты остаются мечтами из-за нерешительности и бездеятельности молодых людей.
Судьба уготовила встречу с энергичной девушкой, и все готово к поездке...
Песни звучат в исполнении актрисы театра мюзикла Карины Арбельяни.
Режиссер: Юрий Титов
Актеры: Юрий Титов, Владимир Шмаков, Александра Платонова, Карина Арбельяни, Антон Торсуков,
Родион Овчинников, Василий Симонов, Альбина Евтушевская
Оператор: Александр N,
Продолжительность: 00:27:38
Качество видео: WEB-DLRip

Видеокодек: MPEG-4 AVC/H.264
Битрейт видео: ~600 kb/s
Размер кадра: 640х360
Аудиокодек: AAC 2.0
Битрейт аудио: 112 kb/s

Рецензия, отзыв о фильме

Фильм начинающего талантливого режиссера - выпускника театрального института
им. Б. Щукина рассказывает о поисках пути в жизни молодых людей, о нерешительных мечтателях и деятельных натурах.
Фильм был представлен в 2014 году на международном фестивале короткометражных фильмов.

Mediainfo:

Общее
Полное имя                               : C:\Users\Антон\Searches\Desktop\РЕЛИЗ\В Париж, в Париж.mp4
Формат                                   : MPEG-4
Профиль формата                          : Base Media / Version 2
Идентификатор кодека                     : mp42
Размер файла                             : 141 Мбайт
Продолжительность                        : 27 м.
Режим общего битрейта                    : Переменный
Общий поток                              : 715 Кбит/сек
Дата кодирования                         : UTC 2014-02-26 13:20:33
Дата пометки                             : UTC 2014-02-26 13:20:33
Видео
Идентификатор                            : 1
Формат                                   : AVC
Формат/Информация                        : Advanced Video Codec
Профиль формата                          : [url=mailto:[email protected]][email protected][/url]
Параметр CABAC формата                   : Да
Параметр ReFrames формата                : 4 кадра
Идентификатор кодека                     : avc1
Идентификатор кодека/Информация          : Advanced Video Coding
Продолжительность                        : 27 м.
Битрейт                                  : 600 Кбит/сек
Ширина                                   : 640 пикселей
Высота                                   : 360 пикселей
Соотношение сторон                       : 16:9
Вариант 2:
Общее
Полное имя : E:\temp\В Париж, в Париж.mp4
Формат : MPEG-4
Профиль формата : Base Media / Version 2
Идентификатор кодека : mp42
Размер файла : 141 Мбайт
Продолжительность : 27 м.
Режим общего битрейта : Переменный
Общий поток : 715 Кбит/сек
Дата кодирования : UTC 2014-02-26 13:20:33
Дата пометки : UTC 2014-02-26 13:20:33
Видео
Идентификатор : 1
Формат : AVC
Формат/Информация : Advanced Video Codec
Профиль формата : [url=mailto:[email protected]][email protected][/url]
Параметр CABAC формата : Да
Параметр ReFrames формата : 4 кадра
Идентификатор кодека : avc1
Идентификатор кодека/Информация : Advanced Video Coding
Продолжительность : 27 м.
Битрейт : 600 Кбит/сек
Ширина : 640 пикселей
Высота : 360 пикселей
Соотношение сторон : 16:9
Режим частоты кадров : Постоянный
Частота кадров : 23,976 кадра/сек
Цветовое пространство : YUV
Субдискретизация насыщенности : 4:2:0
Битовая глубина : 8 бит
Тип развёртки : Прогрессивная
Бит/(Пиксели*Кадры) : 0.109
Размер потока : 118 Мбайт (84%)
Библиотека кодирования : x264 core 140 r2377 1ca7bb9
Настройки программы : cabac=1 / ref=3 / deblock=1:0:0 / analyse=0x3:0x113 / me=hex / subme=7 / psy=1 / psy_rd=1.00:0.00 / mixed_ref=1 / me_range=16 / chroma_me=1 / trellis=1 / 8x8dct=1 / cqm=0 / deadzone=21,11 / fast_pskip=1 / chroma_qp_offset=-2 / threads=12 / lookahead_threads=2 / sliced_threads=0 / nr=0 / decimate=1 / interlaced=0 / bluray_compat=0 / stitchable=1 / constrained_intra=0 / bframes=3 / b_pyramid=2 / b_adapt=1 / b_bias=0 / direct=1 / weightb=1 / open_gop=0 / weightp=2 / keyint=72 / keyint_min=24 / scenecut=40 / intra_refresh=0 / rc_lookahead=40 / rc=2pass / mbtree=1 / bitrate=600 / ratetol=1.0 / qcomp=0.60 / qpmin=5 / qpmax=69 / qpstep=4 / cplxblur=20.0 / qblur=0.5 / vbv_maxrate=900 / vbv_bufsize=3000 / nal_hrd=none / filler=0 / ip_ratio=1.40 / aq=1:1.00
Дата кодирования : UTC 2014-02-26 13:20:33
Дата пометки : UTC 2014-02-26 13:20:33
Основные цвета : BT.601 NTSC
Характеристики трансфера : BT.601
Коэффициенты матрицы : BT.601
Аудио
Идентификатор : 2
Формат : AAC
Формат/Информация : Advanced Audio Codec
Профиль формата : LC
Идентификатор кодека : 40
Продолжительность : 27 м.
Вид битрейта : Переменный
Битрейт : 112 Кбит/сек
Каналы : 2 канала
Расположение каналов : Front: L R
Частота : 48,0 КГц
Метод сжатия : С потерями
Размер потока : 22,1 Мбайт (16%)
Дата кодирования : UTC 2014-02-26 13:20:33
Дата пометки : UTC 2014-02-26 13:20:33
Скриншоты:
-Время раздачи: Пн-Пт с 18:00 до 22:00, Сб-Вс с 09:00 до 23:30
Яндекс.Метрика
Рейтинг@Mail.ru