Зип и Зап. Клуб стеклянных шариков / Zipi y Zape y el club de la canica (Оскар Сантос Гомес / Oskar Santos) [2013 г., комедия, приключения, семейный, HDRip] Dub (Чистый звук)

 

Создавать темы 09-Янв-2015 03:23

-Зип и Зап. Клуб стеклянных шариков / Zipi y Zape y el club de la canica- Производство: Испания
Год выпуска: 2013 г.
Жанр: комедия, приключения, семейный
Продолжительность: 01:32:04
Мировая премьера: 8 сентября 2013
Российская премьера: 11 сентября 2014, «Наше Кино»
Перевод: Профессиональный (полное дублирование) [Чистый звук]-Режиссер: Оскар Сантос Гомес / Oskar Santos
В ролях: Хавьер Гутьеррес, Рауль Ривас, Дэниэл Церезо, Клаудия Вега, Фран Гарсия, Маркос Руис, Кристиан Мулас, Альберто Лопес, Хавьер Сифриан-Описание: Братья Зип и Зап в наказание отправлены на лето в центр перевоспитания «Надежда», которым руководит одноглазый директор Фальконетти. Очень скоро они обнаруживают, что это место, где играть вообще запрещено. Поэтому они организуют Клуб стеклянных шариков (игра в шарики — популярная детская игра в Испании), который становится символом сопротивления детей против власти взрослых.- -Качество видео: HDRip
Контейнер: AVI
Видео кодек: XviD
Аудио кодек: AC3
Видео: 720x304 (2.37:1), 23.976 fps, XviD build 50 ~1875 kbps avg, 0.36 bit/pixel
Аудио: 48 kHz, AC3 Dolby Digital, 2/0 (L,R) ch, ~384 kbps
Cубтитры: отсутствуют

Media Info

General
Complete name : D:\Zip.i.Zap.Klub.kamney.2013.D.HDRip.1493Mb.avi
Format : AVI
Format/Info : Audio Video Interleave
File size : 1.46 GiB
Duration : 1h 32mn
Overall bit rate : 2 269 Kbps
Writing application : VirtualDubMod 1.5.10.2 (build 2540/release)
Writing library : VirtualDubMod build 2540/release
Video
ID : 0
Format : MPEG-4 Visual
Format profile : Advanced [email protected]
Format settings, BVOP : 2
Format settings, QPel : No
Format settings, GMC : No warppoints
Format settings, Matrix : Default (MPEG)
Codec ID : XVID
Codec ID/Hint : XviD
Duration : 1h 32mn
Bit rate : 1 876 Kbps
Width : 720 pixels
Height : 304 pixels
Display aspect ratio : 2.35:1
Frame rate : 23.976 fps
Color space : YUV
Chroma subsampling : 4:2:0
Bit depth : 8 bits
Scan type : Progressive
Compression mode : Lossy
Bits/(Pixel*Frame) : 0.357
Stream size : 1.21 GiB (83%)
Writing library : XviD 1.2.1 (UTC 2008-12-04)
Audio
ID : 1
Format : AC-3
Format/Info : Audio Coding 3
Mode extension : CM (complete main)
Format settings, Endianness : Big
Codec ID : 2000
Duration : 1h 32mn
Bit rate mode : Constant
Bit rate : 384 Kbps
Channel(s) : 2 channels
Channel positions : Front: L R
Sampling rate : 48.0 KHz
Bit depth : 16 bits
Compression mode : Lossy
Stream size : 253 MiB (17%)
Alignment : Split accross interleaves
Interleave, duration : 42 ms (1.00 video frame)
Interleave, preload duration : 500 ms

Скриншоты

Яндекс.Метрика
Рейтинг@Mail.ru