[ Сегодня на трекере фрилич! Идет свободное скачивание без начисления Download ]

13 грехов / 13 Sins (Даниэль Штамм / Daniel Stamm) [2014 г., Триллер, ужасы, мистика, BDRip, 720p] Dub (Чистый звук) + Sub (Rus, Eng) + Original (Eng)

 

Создавать темы 12-Янв-2015 05:27

-13 грехов / 13 Sins- Производство: США / Little Magic Films, Automatik Entertainment, IM Global
Год выпуска: 2014 г.
Жанр: Триллер, ужасы, мистика
Продолжительность: 01:32:31
Мировая премьера: 7 марта 2014
Российская премьера: 29 мая 2014, «West»
Перевод: Профессиональный (полное дублирование) [Чистый звук]
Оригинальный аудиопоток: английский-Режиссер: Даниэль Штамм / Daniel Stamm
В ролях: Марк Веббер, Рутина Уэсли, Девон Грайе, Прюитт Тэйлор Винс, Том Бауэр, Рон Перлман, Клайд Джонс, Денин Тайлер, Грег Пирсон, Ричи Монтгомери-Описание: Эллиот Бриндл — умный кроткий сотрудник службы социального обеспечения, тонущий в долгах. Но все меняется, когда раздается телефонный звонок. На том конце провода ему сообщают, что он становится участником тв-шоу, условия простые — выполнить 13 заданий, какими бы странными они не были; приз — деньги, которые копятся с каждым выполненным заданием. Отказ от выполнения или провал задания ведет к обнулению банка.
Деньги можно забрать только выполнив все 13 заданий ведущего. Эллиот следует первым инструкциям и с легкостью съедает пойманную муху. На счету Бриндла появляются первые легкие деньги. Эллиот хочет, но не может прекратить игру, чтобы не потерять «заработанное», хотя задачи становятся более изощренными и опасными, а точка невозврата вот-вот будет пройдена.- -Качество видео: BDRip
Контейнер: MKV
Стандарт разрешения: 720p
Видео кодек: H.264
Аудио кодек: AC3, DTS
Видео: 1280x536 (2.40:1), 3 910 Kbps, 23.976 fps, 0.238 bit/pix
Аудио: AC3, 192 Kbps, 2 ch, 48.0 KHz - Rus
Аудио #2: DTS, 1 509 Kbps, 6 ch, 48.0 KHz - Eng
Cубтитры: Русские, английские
Дополнительно: Сохранены оригинальные чаптеры как на Blu-Ray

Media Info

General
Unique ID : 220677554946587354412661321123915871201 (0xA604F37C1D2E8CDCB8BCE6E02AA7B3E1)
Complete name : D:\13.Sins.2014.Blu.Ray.720p.mkv
Format : Matroska
Format version : Version 4 / Version 2
File size : 3.62 GiB
Duration : 1h 32mn
Overall bit rate : 5 600 Kbps
Encoded date : UTC 2015-01-10 09:48:39
Writing application : mkvmerge v7.5.0 ('Glass Culture') 64bit built on Jan 4 2015 16:48:44
Writing library : libebml v1.3.1 + libmatroska v1.4.2
Video
ID : 1
Format : AVC
Format/Info : Advanced Video Codec
Format profile : [email protected]
Format settings, CABAC : Yes
Format settings, ReFrames : 10 frames
Codec ID : V_MPEG4/ISO/AVC
Duration : 1h 32mn
Bit rate : 3 910 Kbps
Width : 1 280 pixels
Height : 536 pixels
Display aspect ratio : 2.40:1
Frame rate mode : Constant
Frame rate : 23.976 fps
Color space : YUV
Chroma subsampling : 4:2:0
Bit depth : 8 bits
Scan type : Progressive
Bits/(Pixel*Frame) : 0.238
Stream size : 2.45 GiB (68%)
Writing library : x264 core 138 r2356 a1d3d17
Encoding settings : cabac=1 / ref=10 / deblock=1:-3:-3 / analyse=0x3:0x113 / me=umh / subme=10 / psy=1 / psy_rd=1.00:0.05 / mixed_ref=1 / me_range=32 / chroma_me=1 / trellis=2 / 8x8dct=1 / cqm=0 / deadzone=21,11 / fast_pskip=0 / chroma_qp_offset=-2 / threads=18 / lookahead_threads=1 / sliced_threads=0 / nr=0 / decimate=1 / interlaced=0 / bluray_compat=0 / constrained_intra=0 / bframes=4 / b_pyramid=2 / b_adapt=2 / b_bias=0 / direct=3 / weightb=1 / open_gop=0 / weightp=2 / keyint=250 / keyint_min=23 / scenecut=40 / intra_refresh=0 / rc=2pass / mbtree=0 / bitrate=3910 / ratetol=1.0 / qcomp=0.70 / qpmin=0 / qpmax=69 / qpstep=4 / cplxblur=20.0 / qblur=0.5 / ip_ratio=1.40 / pb_ratio=1.30 / aq=2:1.00
Language : English
Default : Yes
Forced : No
Audio #1
ID : 2
Format : AC-3
Format/Info : Audio Coding 3
Mode extension : CM (complete main)
Format settings, Endianness : Big
Codec ID : A_AC3
Duration : 1h 32mn
Bit rate mode : Constant
Bit rate : 192 Kbps
Channel(s) : 2 channels
Channel positions : Front: L R
Sampling rate : 48.0 KHz
Bit depth : 16 bits
Compression mode : Lossy
Stream size : 127 MiB (3%)
Title : Чистый Звук
Language : Russian
Default : Yes
Forced : Yes
Audio #2
ID : 3
Format : DTS
Format/Info : Digital Theater Systems
Mode : 16
Format settings, Endianness : Big
Codec ID : A_DTS
Duration : 1h 32mn
Bit rate mode : Constant
Bit rate : 1 509 Kbps
Channel(s) : 6 channels
Channel positions : Front: L C R, Side: L R, LFE
Sampling rate : 48.0 KHz
Bit depth : 24 bits
Compression mode : Lossy
Stream size : 999 MiB (27%)
Language : English
Default : No
Forced : No
Text #1
ID : 4
Format : UTF-8
Codec ID : S_TEXT/UTF8
Codec ID/Info : UTF-8 Plain Text
Language : Russian
Default : Yes
Forced : Yes
Text #2
ID : 5
Format : UTF-8
Codec ID : S_TEXT/UTF8
Codec ID/Info : UTF-8 Plain Text
Title : lumez
Language : Russian
Default : No
Forced : No
Text #3
ID : 6
Format : UTF-8
Codec ID : S_TEXT/UTF8
Codec ID/Info : UTF-8 Plain Text
Language : English
Default : No
Forced : No
Menu
00:00:00.000 : en:Chapter 01
00:05:10.602 : en:Chapter 02
00:10:52.610 : en:Chapter 03
00:16:12.972 : en:Chapter 04
00:23:14.685 : en:Chapter 05
00:28:38.926 : en:Chapter 06
00:35:55.528 : en:Chapter 07
00:40:40.897 : en:Chapter 08
00:48:50.177 : en:Chapter 09
00:56:12.077 : en:Chapter 10
01:03:46.823 : en:Chapter 11
01:11:24.447 : en:Chapter 12
01:15:58.262 : en:Chapter 13
01:22:09.716 : en:Chapter 14
01:28:21.296 : en:Chapter 15

Скриншоты

Яндекс.Метрика
Рейтинг@Mail.ru