Агент Картер / Agent Carter / Сезон: 1 / Серии: 1 из 8 (Луис Д’Эспозито / Louis D'Esposito) [2015 г., фантастика, боевик, приключения, ... WEB-DLRip] MVO (LostFilm) + Original (Eng) [обновляемая]

 

Создавать темы 12-Янв-2015 05:59

Агент Картер / Agent Carter- Русское название: Агент Картер
Оригинальное название: Agent Carter
Страна: Великобритания
Год выпуска: 2015
Жанр: фантастика, боевик, приключения, ...-Озвучка: Студия
Перевод: Многоголосый закадровый, профессиональный
Оригинальный аудиопоток: английский-Премьера (мир): 6 января 2015-Режиссер: Луис Д’Эспозито / Louis D'Esposito, Питер Лето / Peter Leto, Джо Руссо / Joe Russo, ...
В главных ролях: Хейли Этвелл (Пегги Картер), Доминик Купер (Говард Старк), Джеймс Д’Арси (Эдвин Джарвис), Миген Фэй (Мириам Фрай), Линдси Фонсека (Энджи Мартинелли), Бриджит Риган (Дотти Андервуд), Ши Уигхэм (Роджер Дули), Энвер Гьокай (Дэниел Соуза), Чад Майкл Мюррей (Джек Томпсон) ...-Описание фильма:
«Агент Картер» — фантастический боевик по мотивам комиксов Marvel, сюжет которого связан с событиями блокбастера «Первый мститель» и сериала «Агенты Щ.И.Т.» (Marvel's Agents of S.H.I.E.L.D. ). В создании нового шоу приняли участие сценаристы «Первого мстителя» и один из режиссеров его сиквела. Также над сериалом поработал постановщик и автор сценария «Короткометражки Marvel: Агент Картер». Она вышла в 2013 году, и с тех пор преданные фанаты вселенной Marvel ждали, когда кто-нибудь наконец займется отдельным проектом об этой героине. Стоит заметить, что благодаря тщательному кастингу, основательно проработанной истории и неповторимой атмосфере послевоенной Америки сериал «Агент Картер» придется по вкусу не только знатокам комиксов, но и любому ценителю захватывающих шпионских историй.-Сезон: 1
Серии: 1 из 8 серий
Продолжительность: ~ 00:42:00 мин серия-Качество видео: WEB-DLRip
Формат: AVI
Видеокодек: XviD
Аудиокодек: AC-3
Видео: MPEG-4 Visual at 1498 Кбит/сек: 720 x 400 (1.800) at 23.976 fps, 0.22 Бит/Пиксели
Аудио Rus: AC-3 at 192 Кбит/сек: 2 канала, 48,0 КГц |LostFilm|
Аудио Eng: AC-3 at 192 Кбит/сек: 2 канала, 48,0 КГц |Original|
-

Список серий:

  • Это еще не конец (Now is Not The End)
-

MediaInfo:

Общее
Полное имя : C:\Users\kogesan\Desktop\Корзина\111\Marvels.Agent.Carter.S01E01.rus.eng.LostFilm.TV.avi
Формат : AVI
Формат/Информация : Audio Video Interleave
Размер файла : 580 Мбайт
Продолжительность : 42 м.
Общий поток : 1896 Кбит/сек
Программа кодирования : VirtualDubMod 1.5.10.2 (build 2540/release)
Библиотека кодирования : VirtualDubMod build 2540/release
Видео
Идентификатор : 0
Формат : MPEG-4 Visual
Профиль формата : Advanced [email protected]
Параметр BVOP формата : 2
Параметр QPel формата : Нет
Параметр GMC формата : Без точки перехода
Параметр матрицы формата : Default (MPEG)
Идентификатор кодека : XVID
Идентификатор кодека/Подсказка : XviD
Продолжительность : 42 м.
Битрейт : 1498 Кбит/сек
Ширина : 720 пикселей
Высота : 400 пикселей
Соотношение сторон : 16:9
Частота кадров : 23,976 кадра/сек
Цветовое пространство : YUV
Субдискретизация насыщенности : 4:2:0
Битовая глубина : 8 бит
Тип развёртки : Прогрессивная
Метод сжатия : С потерями
Бит/(Пиксели*Кадры) : 0.217
Размер потока : 458 Мбайт (79%)
Библиотека кодирования : XviD 1.2.0.dev47 (UTC 2006-11-01)
Аудио #1
Идентификатор : 1
Формат : AC-3
Формат/Информация : Audio Coding 3
Расширение режима : CM (complete main)
Параметр Endianness формата : Big
Идентификатор кодека : 2000
Продолжительность : 42 м.
Вид битрейта : Постоянный
Битрейт : 192 Кбит/сек
Каналы : 2 канала
Расположение каналов : Front: L R
Частота : 48,0 КГц
Битовая глубина : 16 бит
Метод сжатия : С потерями
Размер потока : 58,7 Мбайт (10%)
Выравнивание : Разделение по промежуткам
Продолжительность промежутка : 42 мс. (1,00 видеокадр)
Время предзагрузки промежутка : 500 мс.
Аудио #2
Идентификатор : 2
Формат : AC-3
Формат/Информация : Audio Coding 3
Расширение режима : CM (complete main)
Параметр Endianness формата : Big
Идентификатор кодека : 2000
Продолжительность : 42 м.
Вид битрейта : Постоянный
Битрейт : 192 Кбит/сек
Каналы : 2 канала
Расположение каналов : Front: L R
Частота : 48,0 КГц
Битовая глубина : 16 бит
Метод сжатия : С потерями
Размер потока : 58,7 Мбайт (10%)
Выравнивание : Разделение по промежуткам
Продолжительность промежутка : 42 мс. (1,00 видеокадр)
Время предзагрузки промежутка : 500 мс.
-

Скриншот c названием фильма

-Скриншоты:
-

Еще

-

Внимание! Раздача ведётся путём добавления новых серий!

Раздача ведётся путём добавления новых серий; при каждом добавлении создаётся новый торрент.
Чтобы начать докачку новой серии, пользователям необходимо сделать следующее:
1. остановить скачивание,
2. удалить старый торрент у себя из клиента (старые серии удалять не надо),
3. скачать новый торрент и запустить его у себя в клиенте вместо старого, при этом указать клиенту путь в старую папку, куда и должно происходить скачивание новых серий.
Ваш клиент при этом должен произвести хеширование (проверку) старой папки (если не производит сам - помогите ему сделать это), и будет докачивать только те серии которых у вас ещё нет. Старые серии при этом не удаляются, а продолжают раздаваться!
Eсли вы уже удалили старые серии, то предотвратить повторную закачку старых серий можно, отжав галочку в соответствующих местах при запуске нового торрента. По возможности, желательно не удалять старые серии как можно дольше, чтобы релизёр не столько продолжал раздавать старые серии, а смог сконцентрироваться на новых.
Совет для тех, кто не хочет ждать перехеширования:
Создайте ещё одну папку рядом с папкой сериала (рядом, а не в ней!!!). Каждую новую серию после удачной загрузки копируйте в новую папку так чтобы ваша основная папка всегда была пуста. Когда ваш новый торрент предложит вам закачать все файлы, выберете только последнюю. Для сидирования же укажите адрес новой папки.
Как закачать отдельный файл из торрента или докачать ранее пропущенные файлы торрента!
-

Как закачать отдельный файл

1. Открыть торрент
2. Снять галки с тех файлов торрента, которые мы не хотим закачивать. Оставляем только на нужных нам файлах (файле).
3. Нажать О.К.
В клиенте utorrent
Инструкция
1) Открыть торрент

2) Снять галки с тех файлов торрента, которые мы не хотим закачивать:
* либо вручную, снимая с каждого файла галку( скрин №1)
* либо, нажав кнопку "Снять метки (Select None)", сняв сразу со всех файлов(скрин №2)
№1

№2

Оставляем только на нужных нам файлах (файле).

3)Нажать О.К
-Добавлена первая серия первого сезона
Яндекс.Метрика
Рейтинг@Mail.ru