Остров / The Island (Майкл Бэй / Michael Bay) [2005 г., фантастика, боевик, триллер, приключения, BDRip] Dub

 

Создавать темы 13-Янв-2015 15:48

-Остров / The Island- Производство: США, DreamWorks SKG, Warner Bros, Parkes/MacDonald Productions
Год выпуска: 2005 г.
Жанр: фантастика, боевик, триллер, приключения
Продолжительность: 02:15:59
Мировая премьера: 11 июля 2005
Российская премьера: 11 августа 2005, «Каро-Премьер»
Дата выхода DVD: 10 февраля 2011, «ВС трейд»
Дата выхода Blu-Ray: 15 сентября 2009, «Юниверсал Пикчерс Рус»
Перевод: Профессиональный (полное дублирование)-Режиссер: Майкл Бэй / Michael Bay
В ролях: Эван МакГрегор, Скарлетт Йоханссон, Джимон Хунсу, Шон Бин, Стив Бушеми, Майкл Кларк Дункан, Этан Филлипс, Брайан Степанек, Ноа Тишби, Сиобэн Флинн, Трой Бленелл, Джэми МакБрайд, Кевин МакКоркл, Гари Никенс, Кэтлин Роуз Перкинс, Ричард Уайтен, Макс Бэйкер, Фил Абрамс, Светлана Ефремова, Кэти Бойер, Рэнди Оглсби-Описание: Линкольн Шесть-Эхо — житель на вид утопического, но охраняемого поселения середины XXI века. Как и все обитатели этого тщательно контролируемого пространства, Линкольн надеется оказаться среди тех, кого отправят на «Остров» — якобы последнее незагрязненное место на планете. Но очень скоро Линкольн обнаруживает, что абсолютно всё, что касается его существования — ложь.- -Качество видео: BDRip
Контейнер: AVI
Видео кодек: XviD
Аудио кодек: AC3
Видео: 704x304 (2.32:1), 23.976 fps, XviD build 50 ~1905 kbps avg, 0.37 bit/pixel
Аудио: 48 kHz, AC3 Dolby Digital, 3/2 (L,C,R,l,r) + LFE ch, ~384 kbps
Cубтитры: отсутствуют

Media Info

General
Complete name : D:\Ostrov.2005.BDRip.avi
Format : AVI
Format/Info : Audio Video Interleave
Format profile : OpenDML
File size : 2.18 GiB
Duration : 2h 15mn
Overall bit rate : 2 296 Kbps
Writing application : VirtualDubMod 1.5.10.2 (build 2540/release)
Video
ID : 0
Format : MPEG-4 Visual
Format profile : Advanced [email protected]
Format settings, BVOP : 1
Format settings, QPel : No
Format settings, GMC : No warppoints
Format settings, Matrix : Default (MPEG)
Codec ID : XVID
Codec ID/Hint : XviD
Duration : 2h 15mn
Bit rate : 1 901 Kbps
Width : 704 pixels
Height : 304 pixels
Display aspect ratio : 2.35:1
Frame rate : 23.976 fps
Color space : YUV
Chroma subsampling : 4:2:0
Bit depth : 8 bits
Scan type : Progressive
Compression mode : Lossy
Bits/(Pixel*Frame) : 0.370
Stream size : 1.81 GiB (83%)
Writing library : XviD 1.2.1 (UTC 2008-12-04)
Audio
ID : 1
Format : AC-3
Format/Info : Audio Coding 3
Mode extension : CM (complete main)
Format settings, Endianness : Big
Codec ID : 2000
Duration : 2h 15mn
Bit rate mode : Constant
Bit rate : 384 Kbps
Channel(s) : 6 channels
Channel positions : Front: L C R, Side: L R, LFE
Sampling rate : 48.0 KHz
Bit depth : 16 bits
Compression mode : Lossy
Stream size : 373 MiB (17%)
Alignment : Aligned on interleaves
Interleave, duration : 42 ms (1.00 video frame)
Interleave, preload duration : 512 ms

Скриншоты

Яндекс.Метрика
Рейтинг@Mail.ru