Путешествие Гектора в поисках счастья / Hector and the Search for Happiness (Питер Челсом / Peter Chelsom) [2014 г., драма, комедия, приключения, HDRip] Dub (Чистый звук)

 

Создавать темы 15-Янв-2015 06:44

-Путешествие Гектора в поисках счастья / Hector and the Search for Happiness- Производство: Великобритания, Германия, Канада, ЮАР
Год выпуска: 2014 г.
Жанр: драма, комедия, приключения
Продолжительность: 01:59:38
Мировая премьера: 14 августа 2014
Российская премьера: 11 декабря 2014, «Экспонента»
Перевод: Профессиональный (полное дублирование) [Чистый звук]-Режиссер: Питер Челсом / Peter Chelsom
В ролях: Саймон Пегг, Тони Коллетт, Розамунд Пайк, Стеллан Скарсгард, Жан Рено, Кристофер Пламмер, Трейси Энн Оберман, Вероника Феррес, Барри Атсма, Минг Жао-Описание: Гектор — немного эксцентричный, но ужасно обаятельный лондонский психиатр — пребывает в состоянии кризиса, вызванного тем, что его пациенты не становятся счастливее, несмотря на все его усилия. И однажды Гектор решается самолично отправиться в путешествие по всему свету, чтобы узнать, существует ли счастье вообще и, что еще важнее, существует ли оно для него самого.- -Качество видео: HDRip
Контейнер: AVI
Видео кодек: XviD
Аудио кодек: AC3
Видео: 720x304 (2.37:1), 24 fps, XviD build 50 ~1541 kbps avg, 0.29 bit/pixel
Аудио: 48 kHz, AC3 Dolby Digital, 2/0 (L,R) ch, ~192 kbps
Cубтитры: отсутствуют

Media Info

General
Complete name : D:\Puteshestvie.Gektora.2014.D.HDRip.1.46Gb.avi
Format : AVI
Format/Info : Audio Video Interleave
File size : 1.46 GiB
Duration : 1h 59mn
Overall bit rate : 1 743 Kbps
Writing application : VirtualDubMod 1.5.10.2 (build 2540/release)
Writing library : VirtualDubMod build 2540/release
Video
ID : 0
Format : MPEG-4 Visual
Format profile : Advanced [email protected]
Format settings, BVOP : 2
Format settings, QPel : No
Format settings, GMC : No warppoints
Format settings, Matrix : Default (MPEG)
Codec ID : XVID
Codec ID/Hint : XviD
Duration : 1h 59mn
Bit rate : 1 542 Kbps
Width : 720 pixels
Height : 304 pixels
Display aspect ratio : 2.35:1
Frame rate : 24.000 fps
Color space : YUV
Chroma subsampling : 4:2:0
Bit depth : 8 bits
Scan type : Progressive
Compression mode : Lossy
Bits/(Pixel*Frame) : 0.294
Stream size : 1.29 GiB (88%)
Writing library : XviD 1.2.1 (UTC 2008-12-04)
Audio
ID : 1
Format : AC-3
Format/Info : Audio Coding 3
Mode extension : CM (complete main)
Format settings, Endianness : Big
Codec ID : 2000
Duration : 1h 59mn
Bit rate mode : Constant
Bit rate : 192 Kbps
Channel(s) : 2 channels
Channel positions : Front: L R
Sampling rate : 48.0 KHz
Bit depth : 16 bits
Compression mode : Lossy
Stream size : 164 MiB (11%)
Alignment : Split accross interleaves
Interleave, duration : 42 ms (1.00 video frame)
Interleave, preload duration : 500 ms

Скриншоты

Яндекс.Метрика
Рейтинг@Mail.ru