Перевозчик / Transporter: The Series (Сезон: 2 / Серии: 1-10) (Брэд Тернер / Brad Turner, Эрик Валетт / Eric Valette, Энди Микита / Andy Mikita) [2014 г., Боевик, криминал, HDTVRip] MVO (LostFilm)

 

Создавать темы 17-Янв-2015 04:24

Перевозчик / Transporter: The Series«One man, Three rules, One goal...» -Производство: Канада, Франция, США, Германия (Atlantique Productions, QVF, Astral Television)
Жанр: Боевик, криминал
Год выпуска: 2012 - 2014 г.
Продолжительность: 10 серий по ~ 00:51:14
Мировая премьера: 29 ноября 2012
Российская премьера: 9 сентября 2013
Дата выхода DVD: 15 октября 2013, «ВС трейд»
Перевод: Профессиональный (многоголосый, закадровый)
Оригинальный аудиопоток: английский-Озвучка: студия -Режиссер: Брэд Тернер / Brad Turner, Эрик Валетт / Eric Valette, Энди Микита / Andy Mikita
Сценарий: Майкл Амо, Стив Бейли, Люк Бессон
Продюсер: Сьюзэн Мердок, Фред Фучс, Оливье Биба
Оператор: Стивен Рейзерс, Дэвид Херрингтон, Дерик В. Ундершульц
Композитор: Натэниел Мекали
Художник: Тим Бидер, Линдси Хермер-Белл, Джон Дондертмэн
Монтаж: Стивен Лоуренс, Рослин Каллу, Дон Кэссиди-В ролях: Крис Вэнс, Чарли Хюбнер, Франсуа Берлеан, Андреа Ошварт, Дэльфин Шанеак, Виоланте Плачидо, Курт Келли, Джулиан Ричингс, Даффер Лабидин, Марк Рендалл-Описание: Сериал «Перевозчик» продолжает рассказ о приключениях бывшего спецназовца Фрэнка Мартина, героя серии экшен-фильмов «Перевозчик» Люка Бессона. Джейсона Стэтхэма в роли главного героя сменил актер Крис Вэнс.
Фрэнк Мартин – профессиональный курьер, который способен доставить что угодно, куда угодно и кому угодно. Три четких правила, которые герой выработал для себя, гласят: «Никогда не менять условий сделки», «Никогда не открывать груз» и «Не знать ничьих имен». Три правила, которые Фрэнк постоянно нарушает…-Качество видео: HDTVRip
Контейнер: AVI
Видео кодек: XviD
Аудио кодек: MP3
Видео: 720x400 (1.80:1), 23.976 fps, XviD build 50 ~1556 kbps avg, 0.23 bit/pixel
Аудио: 48 kHz, MPEG Layer 3, 2 ch, ~187.86 kbps avg
Cубтитры: отсутствуют

Список серий

  • Быть или не быть (2B or Not 2B)
  • Мы вернёмся (We Go Back)
  • Секс, ложь и видео (Sex, Lies and Videotape)
  • Взрывы (Boom)
  • Луч надежды (Beacon of Hope)
  • Дива (The Diva)
  • Перевозчик-2 (Т2)
  • Химера (Chimera)
  • Ефро (Euphro)
  • Доверие (Trust)

Знаете ли вы

  • Бюджет первых 12 серий составил $43 миллиона.

Media Info

Общее
Формат : AVI
Формат/Информация : Audio Video Interleave
Размер файла : 644 Мбайт
Продолжительность : 51 м.
Режим общего битрейта : Переменный
Общий поток : 1757 Кбит/сек
Программа кодирования : Nandub v1.0rc2
Библиотека кодирования : Nandub build 1853/release
Видео
Идентификатор : 0
Формат : MPEG-4 Visual
Профиль формата : Advanced [email protected]
Параметр BVOP формата : Нет
Параметр QPel формата : Нет
Параметр GMC формата : Без точки перехода
Параметр матрицы формата : Default (H.263)
Идентификатор кодека : XVID
Идентификатор кодека/Подсказка : XviD
Продолжительность : 51 м.
Битрейт : 1557 Кбит/сек
Ширина : 720 пикселей
Высота : 400 пикселей
Соотношение сторон : 16:9
Частота кадров : 23,976 кадра/сек
Цветовое пространство : YUV
Субдискретизация насыщенности : 4:2:0
Битовая глубина : 8 бит
Тип развёртки : Прогрессивная
Метод сжатия : С потерями
Бит/(Пиксели*Кадры) : 0.225
Размер потока : 570 Мбайт (89%)
Библиотека кодирования : XviD 1.2.1 (UTC 2008-12-04)
Аудио
Идентификатор : 1
Формат : MPEG Audio
Версия формата : Version 1
Профиль формата : Layer 3
Режим : Joint stereo
Расширение режима : MS Stereo
Идентификатор кодека : 55
Идентификатор кодека/Подсказка : MP3
Продолжительность : 51 м.
Вид битрейта : Переменный
Битрейт : 192 Кбит/сек
Каналы : 2 канала
Частота : 48,0 КГц
Метод сжатия : С потерями
Размер потока : 68,8 Мбайт (11%)
Выравнивание : Соединение по промежуткам
Продолжительность промежутка : 24 мс. (0,58 видеокадр)
Время предзагрузки промежутка : 478 мс.
Библиотека кодирования : LAME3.97b
Настройки программы : -m j -V 4 -q 3 -lowpass 18.6 --abr 192

Скриншоты

--

Внимание! Раздача ведётся путём добавления новых серий!

  • Раздача ведётся путём добавления новых серий. При каждом добавлении создётся новый торрент.
  • Чтобы начать докачку новой серии, пользователям необходимо сделать следующее:
    1. остановить скачивание;
    2. удалить старый торрент у себя из клиента (старые серии удалять не надо);
    3. скачать новый торрент и запустить его у себя в клиенте вместо старого, при этом указать клиенту путь в старую папку, куда и должно происходить скачивание новых серий.
  • Ваш клиент при этом должен произвести хеширование (проверку) старой папки (если не производит сам - помогите ему сделать это), и будет докачивать только те серии которых у вас ещё нет. Старые серии при этом не удаляются, а продолжают раздаваться!
  • Eсли вы уже удалили старые серии, то предотвратить повторную закачку старых серий можно, отжав галочку в соответсвующих местах при запуске нового торрента. По возможности, желательно не удалять старые серии как можно дольше, чтобы релизёр не столько продолжал раздавать старые серии, а смог сконцентрироваться на новых.
  • Совет для тех, кто не хочет ждать перехеширования:
    Создайте ещё одну папку рядом с папкой сериала (рядом, а не в ней!!!). Каждую новую серию после удачной загрузки копируйте в новую папку так чтобы ваша основная папка всегда была пуста. Когда ваш новый торрент предложит вам закачать все файлы, выберете только последнюю. Для сидирования же укажите адрес новой папки.

Как закачать отдельный файл

1. Открыть торрент
2. Снять галки с тех файлов торрента, которые мы не хотим закачивать. Оставляем только на нужных нам файлах (файле).
3. Нажать О.К.
В клиенте utorrent
Инструкция
1) Открыть торрент

2) Снять галки с тех файлов торрента, которые мы не хотим закачивать:
* либо вручную, снимая с каждого файла галку (скрин №1)
* либо, нажав кнопку "Снять метки (Select None)", сняв сразу со всех файлов (скрин №2)
№1

№2

Оставляем только на нужных нам файлах (файле).

3)Нажать О.К
Яндекс.Метрика
Рейтинг@Mail.ru