Паршивая овца / Black Sheep (Пенелопа Сфирис / Penelope Spheeris) [1996 г., Комедия, BDRip, 720p] AVO (Павел Санаев) + original (Eng)

 

Создавать темы 18-Янв-2015 05:10

Паршивая овца / Black Sheep
Год выпуска: 1996
Производство: США
Жанр: Комедия
Продолжительность: 01:26:27
Перевод: Авторский (одноголосый, закадровый) Павел Санаев
Оригинальный аудиопоток: английский
Субтитры: отсутствуют
Режиссер: Пенелопа Сфирис / Penelope Spheeris
В ролях: Крис Фарли, Дэвид Спейд, Тим Мэтисон, Кристин Эберсоул, Гэри Бьюзи, Грант Хеслов, Тимоти Кархарт, Брюс МакГилл, Майкл Патрик Картер, Бойд Бэнкс
Описание: Эл Доннели обладает всеми качествами, необходимыми для того, чтобы сделать карьеру в большой политике. Он прекрасный оратор, легко зажигающий аудиторию. Эл хорош собой и быстро завоевывает расположение окружающих. Вполне вероятно, что в борьбе за губернаторское кресло Элу Доннели не будет равных. Но что гложет этого блестящего кандидата, что подрывает его уверенность в себе?
Есть в безупречной репутации Эла Доннели одно слабое звено — это его чокнутый брат Майкл. Эл Доннели находит надежный способ обезвредить паршивую овцу. Он приставляет к невменяемому Майклу человека из своей команды, Стива Доддса, и приказывает ему не сводить глаз с трудного брата. Теперь, когда ахиллесова пята надежно скрыта, Эл Доннели вновь обретает уверенность в себе. Его оппонентам не к чему придраться; но вот Стиву Доддсу не повезло…
, КиноПоиск
Качество видео: BDRip
Контейнер: MKV
Стандарт разрешения: 720p
Видео кодек: H.264
Аудио кодек: AC3
Видео: 1280x720, 23.976 fps, 4000 Kbps, 0.181 Bt/Px
Аудио : AC-3, 192 Kbps, 2 ch, 48.0 KHz Rus Санаев
Аудио : AC-3, 448 Kbps, 6 ch, 48.0 KHz Eng Original

Доп. информация

Рип 720P найден в сети, дорога Санаева с DVD, своя.

Media Info

G:\загрузки\BLACK SHEEP(ПАРШИВАЯ ОВЦА)_1996.mkv
General
Unique ID : 189709297019404264646453069677521467943 (0x8EB8AE7C68BB16418E245FAC2A82FA27)
Complete name : G:\загрузки\BLACK SHEEP(ПАРШИВАЯ ОВЦА)_1996.mkv
Format : Matroska
Format version : Version 1
File size : 2.80 GiB
Duration : 1h 26mn
Overall bit rate : 4 643 Kbps
Encoded date : UTC 2015-01-12 09:36:14
Writing application : mkvmerge v2.5.3 ('Boogie') built on Mar 7 2009 15:00:41
Writing library : libebml v0.7.7 + libmatroska v0.8.1
Video #1
ID : 1
Format : AVC
Format/Info : Advanced Video Codec
Format profile : [email protected]
Format settings, CABAC : Yes
Format settings, ReFrames : 9 frames
Codec ID : V_MPEG4/ISO/AVC
Duration : 1h 26mn
Bit rate : 4 000 Kbps
Width : 1 280 pixels
Height : 720 pixels
Display aspect ratio : 16:9
Frame rate mode : Constant
Frame rate : 23.976 fps
Color space : YUV
Chroma subsampling : 4:2:0
Bit depth : 8 bits
Scan type : Progressive
Bits/(Pixel*Frame) : 0.181
Stream size : 2.36 GiB (84%)
Writing library : x264 core 120
Encoding settings : cabac=1 / ref=9 / deblock=1:-3:-3 / analyse=0x3:0x133 / me=umh / subme=10 / psy=1 / psy_rd=1.00:0.00 / mixed_ref=1 / me_range=128 / chroma_me=1 / trellis=2 / 8x8dct=1 / cqm=0 / deadzone=21,11 / fast_pskip=1 / chroma_qp_offset=-2 / threads=12 / sliced_threads=0 / nr=0 / decimate=1 / interlaced=0 / bluray_compat=0 / constrained_intra=0 / bframes=9 / b_pyramid=2 / b_adapt=2 / b_bias=0 / direct=3 / weightb=1 / open_gop=0 / weightp=2 / keyint=240 / keyint_min=24 / scenecut=40 / intra_refresh=0 / rc_lookahead=140 / rc=2pass / mbtree=1 / bitrate=4000 / ratetol=1.0 / qcomp=0.60 / qpmin=3 / qpmax=69 / qpstep=4 / cplxblur=20.0 / qblur=0.5 / ip_ratio=1.40 / aq=1:1.00
Language : English
Default : Yes
Forced : No
Color primaries : BT.709
Transfer characteristics : BT.709
Matrix coefficients : BT.709
Audio #2
ID : 2
Format : AC-3
Format/Info : Audio Coding 3
Mode extension : CM (complete main)
Format settings, Endianness : Big
Codec ID : A_AC3
Duration : 1h 26mn
Bit rate mode : Constant
Bit rate : 192 Kbps
Channel(s) : 2 channels
Channel positions : Front: L R
Sampling rate : 48.0 KHz
Bit depth : 16 bits
Compression mode : Lossy
Stream size : 119 MiB (4%)
Title : AVO Санаев
Language : Russian
Default : Yes
Forced : No
Audio #3
ID : 3
Format : AC-3
Format/Info : Audio Coding 3
Mode extension : CM (complete main)
Format settings, Endianness : Big
Codec ID : A_AC3
Duration : 1h 26mn
Bit rate mode : Constant
Bit rate : 448 Kbps
Channel(s) : 6 channels
Channel positions : Front: L C R, Side: L R, LFE
Sampling rate : 48.0 KHz
Bit depth : 16 bits
Compression mode : Lossy
Stream size : 277 MiB (10%)
Language : English
Default : No
Forced : No

Скриншоты

Яндекс.Метрика
Рейтинг@Mail.ru