Кай Метов - Воспитательный процесс (2008) [FLAC (image+.cue)|Lossless]<Pop>

 

Создавать темы 19-Янв-2015 17:28

-Кай Метов - Воспитательный процесс (2008)- Год: 2008
Страна-производитель диска: Россия
Издатель (лейбл): Global music
Формат: CD, Compilation
Жанр: Pop
Продолжительность: 01:12:32
Кодек: FLAC
Тип рипа: image+.cue
Битрейт: Lossless-Треклист:
01. Где-то далеко идут дожди…
02. Так нельзя
03. Роза чайная (дуэт с М. Распутиной)
04. Одиноким будет вечер
05. Вспомни меня
06. Воспитательный процесс
07. Ты такая классная
08. Что-то не так у нас с тобой
09. Слишком близко, почти рядом
10. Position № 2
11. Я тебя навещу
12. Будешь моя
13. Тебя со мною рядом нет (Part 1)
14. Что ты сделала со мной
15. Снег моей души
16. Так сложились звёзды
17. На сердце грусть

Содержание индексной карты (.CUE&#41;&#58;

REM GENRE Pop
REM DATE 2008
REM DISCID 0A10FF11
REM COMMENT "ExactAudioCopy v1.0b3"
PERFORMER "Кай Метов"
TITLE "Воспитательный процесс"
FILE "Кай Метов - Воспитательный процесс.flac" WAVE
  TRACK 01 AUDIO
    TITLE "Кай Метов - Где-то далеко идут дожди…"
    PERFORMER "Кай Метов"
    FLAGS DCP
    INDEX 01 00:00:00
  TRACK 02 AUDIO
    TITLE "Так нельзя"
    PERFORMER "Кай Метов"
    FLAGS DCP
    INDEX 00 04:22:30
    INDEX 01 04:24:30
  TRACK 03 AUDIO
    TITLE "Роза чайная (дуэт с М. Распутиной)"
    PERFORMER "Кай Метов"
    FLAGS DCP
    INDEX 00 08:26:48
    INDEX 01 08:28:48
  TRACK 04 AUDIO
    TITLE "Одиноким будет вечер"
    PERFORMER "Кай Метов"
    FLAGS DCP
    INDEX 00 12:35:08
    INDEX 01 12:37:08
  TRACK 05 AUDIO
    TITLE "Вспомни меня"
    PERFORMER "Кай Метов"
    FLAGS DCP
    INDEX 00 17:07:11
    INDEX 01 17:09:11
  TRACK 06 AUDIO
    TITLE "Kai Metov - Воспитательный процесс"
    PERFORMER "Кай Метов"
    FLAGS DCP
    INDEX 00 20:53:21
    INDEX 01 20:55:21
  TRACK 07 AUDIO
    TITLE "Ты такая классная"
    PERFORMER "Кай Метов"
    FLAGS DCP
    INDEX 00 25:30:65
    INDEX 01 25:32:65
  TRACK 08 AUDIO
    TITLE "Что-то не так у нас с тобой"
    PERFORMER "Кай Метов"
    FLAGS DCP
    INDEX 00 29:46:00
    INDEX 01 29:48:00
  TRACK 09 AUDIO
    TITLE "Слишком близко, почти рядом"
    PERFORMER "Кай Метов"
    FLAGS DCP
    INDEX 00 33:10:56
    INDEX 01 33:12:56
  TRACK 10 AUDIO
    TITLE "Position № 2"
    PERFORMER "Кай Метов"
    FLAGS DCP
    INDEX 00 36:41:11
    INDEX 01 36:43:11
  TRACK 11 AUDIO
    TITLE "Я тебя навещу"
    PERFORMER "Кай Метов"
    FLAGS DCP
    INDEX 00 40:57:01
    INDEX 01 40:59:01
  TRACK 12 AUDIO
    TITLE "Будешь моя"
    PERFORMER "Кай Метов"
    FLAGS DCP
    INDEX 00 45:05:52
    INDEX 01 45:07:52
  TRACK 13 AUDIO
    TITLE "Тебя со мною рядом нет (Part 1)"
    PERFORMER "Кай Метов"
    FLAGS DCP
    INDEX 00 49:41:67
    INDEX 01 49:43:67
  TRACK 14 AUDIO
    TITLE "Что ты сделала со мной"
    PERFORMER "Кай Метов"
    FLAGS DCP
    INDEX 00 54:15:45
    INDEX 01 54:17:45
  TRACK 15 AUDIO
    TITLE "Снег моей души"
    PERFORMER "Кай Метов"
    FLAGS DCP
    INDEX 00 58:05:31
    INDEX 01 58:07:31
  TRACK 16 AUDIO
    TITLE "Так сложились звёзды"
    PERFORMER "Кай Метов"
    FLAGS DCP
    INDEX 00 61:30:20
    INDEX 01 61:32:20
  TRACK 17 AUDIO
    TITLE "На сердце грусть"
    PERFORMER "Кай Метов"
    FLAGS DCP
    INDEX 00 68:13:46
    INDEX 01 68:15:46

Отчёт ЕАС&#58;

Exact Audio Copy V1.0 beta 3 from 29. August 2011
Отчёт EAC об извлечении, выполненном 8. ноября 2014, 23:54
Kai Metov / Vospitatelniy Process 2
Дисковод: MATSHITADVD-RAM UJ8B0AW   Adapter: 0  ID: 1
Режим чтения                 : Достоверность
Использование точного потока : Да
Отключение кэша аудио        : Да
Использование указателей C2  : Нет
Коррекция смещения при чтении                     : 102
Способность читать области Lead-in и Lead-out     : Нет
Заполнение пропущенных сэмплов тишиной            : Да
Удаление блоков с тишиной в начале и конце        : Нет
При вычислениях CRC использовались нулевые сэмплы : Да
Интерфейс                                         : Встроенный Win32-интерфейс для Win NT/2000
Выходной формат          : Пользовательский кодировщик
Выбранный битрейт        : 128 kBit/s
Качество                 : Высокий
Добавление ID3-тега      : Нет
Утилита сжатия           : C:\Program Files (x86)\Exact Audio Copy\Flac\flac.exe
Дополнительные параметры : -V -8 %source%
TOC извлечённого CD
     Трек |   Старт  | Длительность | Начальный сектор | Конечный сектор
    ---------------------------------------------------------------------
       1  |  0:00.00 |    4:24.30   |           0      |      19829
       2  |  4:24.30 |    4:04.18   |       19830      |      38147
       3  |  8:28.48 |    4:08.35   |       38148      |      56782
       4  | 12:37.08 |    4:32.03   |       56783      |      77185
       5  | 17:09.11 |    3:46.10   |       77186      |      94145
       6  | 20:55.21 |    4:37.44   |       94146      |     114964
       7  | 25:32.65 |    4:15.10   |      114965      |     134099
       8  | 29:48.00 |    3:24.56   |      134100      |     149455
       9  | 33:12.56 |    3:30.30   |      149456      |     165235
      10  | 36:43.11 |    4:15.65   |      165236      |     184425
      11  | 40:59.01 |    4:08.51   |      184426      |     203076
      12  | 45:07.52 |    4:36.15   |      203077      |     223791
      13  | 49:43.67 |    4:33.53   |      223792      |     244319
      14  | 54:17.45 |    3:49.61   |      244320      |     261555
      15  | 58:07.31 |    3:24.64   |      261556      |     276919
      16  | 61:32.20 |    6:43.26   |      276920      |     307170
      17  | 68:15.46 |    4:15.71   |      307171      |     326366
Характеристики диапазона извлечения и сообщения об ошибках
Выбранный диапазон
     Имя файла C:\Мои раздачи\Кай Метов - Воспитательный процесс\Кай Метов - Воспитательный процесс.wav
     Пиковый уровень 100.0 %
     Скорость извлечения 2.2 X
     Качество диапазона 100.0 %
     CRC теста D8788957
     CRC копии D8788957
     Копирование... OK
Ошибок не произошло
AccurateRip: сводка
Трек  1  отсутствует в базе данных
Трек  2  отсутствует в базе данных
Трек  3  отсутствует в базе данных
Трек  4  отсутствует в базе данных
Трек  5  отсутствует в базе данных
Трек  6  отсутствует в базе данных
Трек  7  отсутствует в базе данных
Трек  8  отсутствует в базе данных
Трек  9  отсутствует в базе данных
Трек 10  отсутствует в базе данных
Трек 11  отсутствует в базе данных
Трек 12  отсутствует в базе данных
Трек 13  отсутствует в базе данных
Трек 14  отсутствует в базе данных
Трек 15  отсутствует в базе данных
Трек 16  отсутствует в базе данных
Трек 17  отсутствует в базе данных
Ни одного трека нет в базе AccurateRip
Конец отчёта
==== Контрольная сумма отчёта CB14E05B4817F2D6B790BD54902BF6BBCD86187E09A3E0C93B8F2B04F4F70F7A ====

Отчёт auCDtect Task manager&#58;

-----------------------
DON'T MODIFY THIS FILE
-----------------------
PERFORMER: auCDtect Task Manager, ver. 1.6.0 RC1 build 1.6.0.1
Copyright (c) 2008-2010 y-soft. All rights reserved
http://y-soft.org
ANALYZER: auCDtect: CD records authenticity detector, version 0.8.2
Copyright (c) 2004 Oleg Berngardt. All rights reserved.
Copyright (c) 2004 Alexander Djourik. All rights reserved.
FILE: Кай Метов - Воспитательный процесс.flac
  Size: 497964750 Hash: 9357CDBF2E0C2D3526F695C2E375A922 Accuracy: -m0
  Conclusion: CDDA 100%
  Signature: 7BF11FBE38BE0168FA920A1626927DF3C6E40494

Спектрограмм&#58;

-

Создавать темы 19-Янв-2015 20:29 (спустя 3 часа)

Не пойму! Почему треки не по одному? Как слушать, перехода к следующему нет!
Всё одним файлом

Создавать темы 19-Янв-2015 23:30 (спустя 3 часа)

Цитата:

FLAC (англ. Free Lossless Audio Codec) - популярный свободный кодек, предназначенный для сжатия аудиоданных без потерь.
В отличие от аудио-кодеков, обеспечивающих сжатие с потерями (MP3, AAC, WMA, Ogg Vorbis) FLAC, как и любой другой lossless-кодек, не удаляет никакой информации из аудиопотока и подходит как для прослушивания музыки на высококачественной звуковоспроизводящей аппаратуре, так и для архивирования аудиоколлекции.
Кидаешь всю папку или cue-файл в AIMP, foobar2000 и слушаешь.
Яндекс.Метрика
Рейтинг@Mail.ru