Маленький Будда / Little Buddha [Полная режиссерская версия] (Бернардо Бертолуччи / Bernardo Bertolucci) [1993 г., драма, DVDRip] MVO

 

Создавать темы 20-Янв-2015 05:42

-Маленький Будда / Little Buddha-Полная режиссерская версия- Производство: Италия, Франция, Лихтенштейн, Великобритания, Recorded Picture Company (RPC), CiBy 2000, Serprocor Anstalt
Год выпуска: 1993 г.
Жанр: драма
Продолжительность: 02:14:55
Мировая премьера: 1 декабря 1993
Дата выхода DVD: 26 ноября 2009, «CP-Digital»
Перевод: Профессиональный (многоголосый, закадровый)-Режиссер: Бернардо Бертолуччи / Bernardo Bertolucci
В ролях: Киану Ривз, Крис Айзек, Бриджит Фонда, Ин Жочэн, Алекс Визендейнджер, Раджу Лал, Грейшма Макар Сингх, Согйял Ринпоче, Хёнгла Рато Ринпоче, Геше Цултим Гелсен-Описание: После смерти ламы Дорже из Тибета буддийские монахи начинают искать по всему миру детей, в которых воплотилась душа умершего. Они находят американского мальчика Джесси и двух индусов — Раджу и Гиту, которые втроем стали объектом реинкарнации. Параллельно поведана легенда о принце Сиддхарте, который однажды начал свое восхождение к вершинам Духа.-Качество видео: DVDRip (Рип с DVD-9)
Контейнер: AVI
Видео кодек: XviD
Аудио кодек: AC3
Видео: 720x304 (2.37:1), 25 fps, XviD build 50 ~1348 kbps avg, 0.25 bit/pixel
Аудио: 48 kHz, AC3 Dolby Digital, 2/0 (L,R) ch, ~192 kbps
Cубтитры: отсутствуют

Media Info

General
Complete name : C:\Users\Ivan\Desktop\Little.Buddha.1993.MVO.DVDRip.avi
Format : AVI
Format/Info : Audio Video Interleave
File size : 1.46 GiB
Duration : 2h 14mn
Overall bit rate : 1 550 Kbps
Writing application : VirtualDubMod 1.5.10.3 | www.virtualdub-fr.org || (build 2550/release)
Writing library : VirtualDubMod build 2550/release
Video
ID : 0
Format : MPEG-4 Visual
Format profile : Advanced [email protected]
Format settings, BVOP : 2
Format settings, QPel : No
Format settings, GMC : No warppoints
Format settings, Matrix : Default (MPEG)
Codec ID : XVID
Codec ID/Hint : XviD
Duration : 2h 14mn
Bit rate : 1 349 Kbps
Width : 720 pixels
Height : 304 pixels
Display aspect ratio : 2.35:1
Frame rate : 25.000 fps
Color space : YUV
Chroma subsampling : 4:2:0
Bit depth : 8 bits
Scan type : Progressive
Compression mode : Lossy
Bits/(Pixel*Frame) : 0.246
Stream size : 1.27 GiB (87%)
Writing library : XviD 1.2.1 (UTC 2008-12-04)
Audio
ID : 1
Format : AC-3
Format/Info : Audio Coding 3
Mode extension : CM (complete main)
Format settings, Endianness : Big
Codec ID : 2000
Duration : 2h 14mn
Bit rate mode : Constant
Bit rate : 192 Kbps
Channel(s) : 2 channels
Channel positions : Front: L R
Sampling rate : 48.0 KHz
Bit depth : 16 bits
Compression mode : Lossy
Stream size : 185 MiB (12%)
Alignment : Split accross interleaves
Interleave, duration : 40 ms (1.00 video frame)
Interleave, preload duratio : 500 ms

Скриншоты

Яндекс.Метрика
Рейтинг@Mail.ru