Первый рыцарь / First Knight (Джерри Зукер / Jerry Zucker) [1995 г., приключения, мелодрама, драма, BDRip, 720р] Dub + MVO (Первый, ТВЦ, СТС) + DVO (Рен-ТВ) + AVO (Гаврилов, Живов, Визгунов) + original (Eng) + Sub (Rus, Eng)

 

Создавать темы 21-Янв-2015 05:13

-Первый рыцарь / First Knight-- Год выпуска: 1995
Производство: США, Columbia Pictures
Жанр: приключения, мелодрама, драма
Продолжительность: 02:13:50-Перевод 1: Профессиональный (полное дублирование) BD CEE
Перевод 2: Профессиональный (многоголосый закадровый) Первый канал
Перевод 3: Профессиональный (многоголосый закадровый) ТВЦ
Перевод 4: Профессиональный (многоголосый закадровый) СТС
Перевод 5: Профессиональный (двухголосый закадровый) Рен-TV
Перевод 6: Авторский (одноголосый, закадровый) Гаврилов
Перевод 7: Авторский (одноголосый, закадровый) Живов
Перевод 8: Авторский (одноголосый, закадровый) Визгунов-Оригинальный аудиопоток: английский
Субтитры: Русские, английские
Навигация по главам: сохранена
Режиссер: Джерри Зукер / Jerry Zucker
В ролях: Шон Коннери, Ричард Гир, Джулия Ормонд, Бен Кросс, Лайам Каннингэм, Кристофер Виллерс, Валентайн Пелка, Колин МакКормак, Ралф Айнесон, Джон Гилгуд, Стюарт Банс, Джейн Роббинс, Жан Мари Коффи, Том Люси, Джон Блейки, Алексис Денисоф, Дэниэл Напрус, Джонатан Кэйк--Описание: Ланселот, воин без страха и упрека, прибыл в золотой замок Камелот, чтобы служить великому королю Артуру. Им предстоят грозные сражения, доблесть и слава. Но в Камелоте он находит женщину, без которой не может жить, но которой не в силах обладать — прекрасную Гуиневеру Лионесскую. Она — возлюбленная короля Артура, который защищает ее маленькое королевство от войск черного рыцаря Малаганта. И Первый Рыцарь Ланселот должен сделать выбор — служить своему королю, или предать его во имя любимой…--Качество видео: BDRip, 720р
Контейнер: MKV
Видео кодек: х.264
Видео: 1280x696 23.976fps ~4 329 kbps, 0.203 bit/pixel-Аудио 1: 48 kHz, AC3 Dolby Digital, 3/2 (L,C,R,l,r) + LFE ch, ~640.00 kbps avg – дубляж
Аудио 2: 48 kHz, AC3 Dolby Digital, 2/0 (L,R) ch, ~192 kbps - Первый
Аудио 3: 48 kHz, AC3 Dolby Digital, 2/0 (L,R) ch, ~192 kbps - ТВЦ
Аудио 4: 48 kHz, AC3 Dolby Digital, 2/0 (L,R) ch, ~192 kbps - СТС
Аудио 5: 48 kHz, AC3 Dolby Digital, 2/0 (L,R) ch, ~192 kbps - Рен-ТВ
Аудио 6: 48 kHz, AC3 Dolby Digital, 2/0 (L,R) ch, ~192 kbps - Гаврилов
Аудио 7: 48 kHz, AC3 Dolby Digital, 2/0 (L,R) ch, ~192 kbps - Живов
Аудио 8: 48 kHz, AC3 Dolby Digital, 2/0 (L,R) ch, ~192 kbps - Визгунов
Аудио 9: 48 kHz, AC3 Dolby Digital, 3/2 (L,C,R,l,r) + LFE ch, ~640.00 kbps avg – оригинал-Формат субтитров: Softsub (SRT)

Лог х.264

x264 [info]: frame I:1513 Avg QP:18.05 size:109044
x264 [info]: frame P:43589 Avg QP:19.05 size: 44328
x264 [info]: frame B:147426 Avg QP:21.74 size: 16184
x264 [info]: consecutive B-frames: 2.6% 3.5% 8.4% 17.3% 23.5% 37.8% 4.2% 1.9% 0.8%
x264 [info]: mb I I16..4: 1.1% 91.7% 7.2%
x264 [info]: mb P I16..4: 0.4% 14.9% 0.8% P16..4: 31.1% 38.2% 12.6% 1.0% 0.0% skip: 1.0%
x264 [info]: mb B I16..4: 0.0% 1.6% 0.1% B16..8: 39.3% 22.5% 3.5% direct: 4.8% skip:28.1% L0:42.6% L1:46.9% BI:10.5%
x264 [info]: 8x8 transform intra:92.6% inter:67.1%
x264 [info]: coded y,uvDC,uvAC intra: 95.6% 90.6% 70.3% inter: 30.5% 23.9% 5.7%
x264 [info]: i16 v,h,dc,p: 5% 5% 2% 88%
x264 [info]: i8 v,h,dc,ddl,ddr,vr,hd,vl,hu: 8% 5% 5% 11% 16% 15% 14% 12% 13%
x264 [info]: i4 v,h,dc,ddl,ddr,vr,hd,vl,hu: 10% 5% 1% 9% 18% 17% 16% 12% 12%
x264 [info]: i8c dc,h,v,p: 47% 17% 16% 20%
x264 [info]: Weighted P-Frames: Y:19.3% UV:14.1%
x264 [info]: ref P L0: 43.0% 10.4% 18.8% 7.2% 6.3% 4.5% 4.3% 2.4% 2.5% 0.6% 0.1%
x264 [info]: ref B L0: 77.1% 9.9% 4.9% 2.8% 2.0% 1.8% 1.0% 0.5%
x264 [info]: ref B L1: 95.1% 4.9%
x264 [info]: kb/s:4466.35
encoded 192528 frames, 0.86 fps, 4466.35 kb/s

Media Info

Общее
Уникальный идентификатор : 199417045893258210236125461682629937082 (0x96065375700C8EE8A25C53840B8487BA)
Полное имя : G:\Temp\Первый рыцарь (First Knight, 1995, BDRip, 720р) dub-3pm-p2-Gavrilov-Jivov-Vizgunov-eng.mkv
Формат : Matroska
Версия формата : Version 2
Размер файла : 6,63 Гбайт
Продолжительность : 2 ч. 13 м.
Общий поток : 7094 Кбит/сек
Название фильма : rip by Gross
Дата кодирования : UTC 2015-01-20 18:45:07
Программа кодирования : mkvmerge v4.7.0 ('Just Like You Imagined') сборка от Apr 21 2011 01:13:14
Библиотека кодирования : libebml v1.2.0 + libmatroska v1.1.0
Видео
Идентификатор : 1
Формат : AVC
Формат/Информация : Advanced Video Codec
Профиль формата : [email protected]
Параметр CABAC формата : Да
Параметр ReFrames формата : 9 кадров
Идентификатор кодека : V_MPEG4/ISO/AVC
Продолжительность : 2 ч. 13 м.
Битрейт : 4329 Кбит/сек
Ширина : 1280 пикселей
Высота : 696 пикселей
Соотношение сторон : 1,85:1
Режим частоты кадров : Постоянный
Частота кадров : 23,976 кадра/сек
Цветовое пространство : YUV
Субдискретизация насыщенности : 4:2:0
Битовая глубина : 8 бит
Тип развёртки : Прогрессивная
Бит/(Пиксели*Кадры) : 0.203
Размер потока : 4,05 Гбайт (61%)
Библиотека кодирования : x264 core 142 r2431 ac76440
Настройки программы : cabac=1 / ref=9 / deblock=1:-3:-3 / analyse=0x3:0x133 / me=umh / subme=11 / psy=1 / psy_rd=1.00:0.05 / mixed_ref=1 / me_range=32 / chroma_me=1 / trellis=2 / 8x8dct=1 / cqm=0 / deadzone=21,11 / fast_pskip=0 / chroma_qp_offset=-3 / threads=3 / lookahead_threads=2 / sliced_threads=0 / nr=0 / decimate=1 / interlaced=0 / bluray_compat=0 / constrained_intra=0 / bframes=8 / b_pyramid=2 / b_adapt=2 / b_bias=0 / direct=1 / weightb=1 / open_gop=0 / weightp=2 / keyint=250 / keyint_min=23 / scenecut=40 / intra_refresh=0 / rc=crf / mbtree=0 / crf=19.0 / qcomp=0.60 / qpmin=0 / qpmax=69 / qpstep=4 / ip_ratio=1.40 / pb_ratio=1.30 / aq=1:1.00
Язык : English
Default : Да
Forced : Нет
Аудио #1
Идентификатор : 2
Формат : AC-3
Формат/Информация : Audio Coding 3
Расширение режима : CM (complete main)
Параметр Endianness формата : Big
Идентификатор кодека : A_AC3
Продолжительность : 2 ч. 13 м.
Вид битрейта : Постоянный
Битрейт : 640 Кбит/сек
Каналы : 6 каналов
Расположение каналов : Front: L C R, Side: L R, LFE
Частота : 48,0 КГц
Битовая глубина : 16 бит
Метод сжатия : С потерями
Размер потока : 613 Мбайт (9%)
Заголовок : dub
Язык : Russian
Default : Да
Forced : Да
Аудио #2
Идентификатор : 3
Формат : AC-3
Формат/Информация : Audio Coding 3
Расширение режима : CM (complete main)
Параметр Endianness формата : Big
Идентификатор кодека : A_AC3
Продолжительность : 2 ч. 13 м.
Вид битрейта : Постоянный
Битрейт : 192 Кбит/сек
Каналы : 2 канала
Расположение каналов : Front: L R
Частота : 48,0 КГц
Битовая глубина : 16 бит
Метод сжатия : С потерями
Размер потока : 184 Мбайт (3%)
Заголовок : pm (Первый)
Язык : Russian
Default : Нет
Forced : Нет
Аудио #3
Идентификатор : 4
Формат : AC-3
Формат/Информация : Audio Coding 3
Расширение режима : CM (complete main)
Параметр Endianness формата : Big
Идентификатор кодека : A_AC3
Продолжительность : 2 ч. 13 м.
Вид битрейта : Постоянный
Битрейт : 192 Кбит/сек
Каналы : 2 канала
Расположение каналов : Front: L R
Частота : 48,0 КГц
Битовая глубина : 16 бит
Метод сжатия : С потерями
Размер потока : 184 Мбайт (3%)
Заголовок : pm (ТВЦ)
Язык : Russian
Default : Нет
Forced : Нет
Аудио #4
Идентификатор : 5
Формат : AC-3
Формат/Информация : Audio Coding 3
Расширение режима : CM (complete main)
Параметр Endianness формата : Big
Идентификатор кодека : A_AC3
Продолжительность : 2 ч. 13 м.
Вид битрейта : Постоянный
Битрейт : 192 Кбит/сек
Каналы : 2 канала
Расположение каналов : Front: L R
Частота : 48,0 КГц
Битовая глубина : 16 бит
Метод сжатия : С потерями
Размер потока : 184 Мбайт (3%)
Заголовок : pm (СТС)
Язык : Russian
Default : Нет
Forced : Нет
Аудио #5
Идентификатор : 6
Формат : AC-3
Формат/Информация : Audio Coding 3
Расширение режима : CM (complete main)
Параметр Endianness формата : Big
Идентификатор кодека : A_AC3
Продолжительность : 2 ч. 13 м.
Вид битрейта : Постоянный
Битрейт : 192 Кбит/сек
Каналы : 2 канала
Расположение каналов : Front: L R
Частота : 48,0 КГц
Битовая глубина : 16 бит
Метод сжатия : С потерями
Размер потока : 184 Мбайт (3%)
Заголовок : p2 (РенТВ)
Язык : Russian
Default : Нет
Forced : Нет
Аудио #6
Идентификатор : 7
Формат : AC-3
Формат/Информация : Audio Coding 3
Расширение режима : CM (complete main)
Параметр Endianness формата : Big
Идентификатор кодека : A_AC3
Продолжительность : 2 ч. 13 м.
Вид битрейта : Постоянный
Битрейт : 192 Кбит/сек
Каналы : 2 канала
Расположение каналов : Front: L R
Частота : 48,0 КГц
Битовая глубина : 16 бит
Метод сжатия : С потерями
Размер потока : 184 Мбайт (3%)
Заголовок : A1 (Gavrilov)
Язык : Russian
Default : Нет
Forced : Нет
Аудио #7
Идентификатор : 8
Формат : AC-3
Формат/Информация : Audio Coding 3
Расширение режима : CM (complete main)
Параметр Endianness формата : Big
Идентификатор кодека : A_AC3
Продолжительность : 2 ч. 13 м.
Вид битрейта : Постоянный
Битрейт : 192 Кбит/сек
Каналы : 2 канала
Расположение каналов : Front: L R
Частота : 48,0 КГц
Битовая глубина : 16 бит
Метод сжатия : С потерями
Размер потока : 184 Мбайт (3%)
Заголовок : A1 (Jivov)
Язык : Russian
Default : Нет
Forced : Нет
Аудио #8
Идентификатор : 9
Формат : AC-3
Формат/Информация : Audio Coding 3
Расширение режима : CM (complete main)
Параметр Endianness формата : Big
Идентификатор кодека : A_AC3
Продолжительность : 2 ч. 13 м.
Вид битрейта : Постоянный
Битрейт : 192 Кбит/сек
Каналы : 2 канала
Расположение каналов : Front: L R
Частота : 48,0 КГц
Битовая глубина : 16 бит
Метод сжатия : С потерями
Размер потока : 184 Мбайт (3%)
Заголовок : A1 (Vizgunov)
Язык : Russian
Default : Нет
Forced : Нет
Аудио #9
Идентификатор : 10
Формат : AC-3
Формат/Информация : Audio Coding 3
Расширение режима : CM (complete main)
Параметр Endianness формата : Big
Идентификатор кодека : A_AC3
Продолжительность : 2 ч. 13 м.
Вид битрейта : Постоянный
Битрейт : 640 Кбит/сек
Каналы : 6 каналов
Расположение каналов : Front: L C R, Side: L R, LFE
Частота : 48,0 КГц
Битовая глубина : 16 бит
Метод сжатия : С потерями
Размер потока : 613 Мбайт (9%)
Заголовок : original
Язык : Russian
Default : Нет
Forced : Нет
Текст #1
Идентификатор : 11
Формат : UTF-8
Идентификатор кодека : S_TEXT/UTF8
Идентификатор кодека/Информация : UTF-8 Plain Text
Язык : Russian
Default : Нет
Forced : Нет
Текст #2
Идентификатор : 12
Формат : UTF-8
Идентификатор кодека : S_TEXT/UTF8
Идентификатор кодека/Информация : UTF-8 Plain Text
Язык : English
Default : Нет
Forced : Нет
Меню
00:00:00.000 : :Chapter 01
00:09:44.875 : :Chapter 02
00:17:37.848 : :Chapter 03
00:23:41.628 : :Chapter 04
00:35:41.347 : :Chapter 05
00:39:03.424 : :Chapter 06
00:44:37.925 : :Chapter 07
00:52:44.536 : :Chapter 08
00:58:16.201 : :Chapter 09
01:07:06.439 : :Chapter 10
01:18:26.243 : :Chapter 11
01:27:07.472 : :Chapter 12
01:37:27.758 : :Chapter 13
01:46:03.231 : :Chapter 14
01:52:08.930 : :Chapter 15
01:58:32.647 : :Chapter 16

Скриншоты

-
Яндекс.Метрика
Рейтинг@Mail.ru