Маги и странники / Travellers and Magicians (Хьенце Норбу / Khyentse Norbu) [2003 г., драма, приключения, DVDRip] DVO

 

Создавать темы 26-Янв-2015 03:57

-Маги и странники / Travellers and Magicians- Производство: Австралия, Бутан, Великобритания
Год выпуска: 2003 г.
Жанр: драма, приключения
Продолжительность: 01:47:55
Мировая премьера: 9 сентября 2003
Перевод: Профессиональный (двухголосый, закадровый) [Кубик в кубе]-Режиссер: Хьенце Норбу / Khyentse Norbu
В ролях: Тшеванг Дендуп, Сонам Ламо, Лакпа Дорджи, Деки Янгзом, Сонам Кинга, Дорджи Будха, Санга Будха, Сумчо Будха, Ним Бутхри, Аум Чензом-Описание: Молодой человек по имени Дондуп, несмотря на свое университетское образование, решает, что лучше собирать яблоки в Соединенных Штатах, нежели работать государственным чиновником в далекой деревушке. На своем пути в поисках лучшей жизни он встречает нескольких странников — монаха, торговца яблоками, изготовителя бумаги и его очаровательную дочь. Монах рассказывает Дондупу историю парня по имени Таши, которая происходит как бы параллельно его собственному путешествию. Это история страсти, ревности, и ее трагическая развязка заставляет Дондупа задуматься — а действительно ли так замечательна жизнь вдали от родного дома.- -Качество видео: DVDRip
Контейнер: AVI
Видео кодек: XviD
Аудио кодек: AC3
Видео: 720x400 (1.80:1), 23.976 fps, XviD build 50 ~1733 kbps avg, 0.25 bit/pixel
Аудио: 48 kHz, AC3 Dolby Digital, 2/0 (L,R) ch, ~192 kbps
Cубтитры: отсутствуют

Media Info

General
Complete name : C:\Users\Ivan\Desktop\Travellers.and.Magicians.2003.DVDRip.avi
Format : AVI
Format/Info : Audio Video Interleave
File size : 1.46 GiB
Duration : 1h 47mn
Overall bit rate : 1 935 Kbps
Writing application : VirtualDubMod 1.5.10.3 | www.virtualdub-fr.org || (build 2550/release)
Writing library : VirtualDubMod build 2550/release
Video
ID : 0
Format : MPEG-4 Visual
Format profile : Advanced [email protected]
Format settings, BVOP : 2
Format settings, QPel : No
Format settings, GMC : No warppoints
Format settings, Matrix : Default (MPEG)
Codec ID : XVID
Codec ID/Hint : XviD
Duration : 1h 47mn
Bit rate : 1 733 Kbps
Width : 720 pixels
Height : 400 pixels
Display aspect ratio : 16:9
Frame rate : 23.976 fps
Color space : YUV
Chroma subsampling : 4:2:0
Bit depth : 8 bits
Scan type : Progressive
Compression mode : Lossy
Bits/(Pixel*Frame) : 0.251
Stream size : 1.31 GiB (90%)
Writing library : XviD 1.2.1 (UTC 2008-12-04)
Audio
ID : 1
Format : AC-3
Format/Info : Audio Coding 3
Mode extension : CM (complete main)
Format settings, Endianness : Big
Codec ID : 2000
Duration : 1h 47mn
Bit rate mode : Constant
Bit rate : 192 Kbps
Channel(s) : 2 channels
Channel positions : Front: L R
Sampling rate : 48.0 KHz
Bit depth : 16 bits
Compression mode : Lossy
Stream size : 148 MiB (10%)
Alignment : Split accross interleaves
Interleave, duration : 42 ms (1.00 video frame)
Interleave, preload duratio : 500 ms

Скриншоты

Яндекс.Метрика
Рейтинг@Mail.ru