[ Сегодня на трекере фрилич! Идет свободное скачивание без начисления Download ]

Кыш и Двапортфеля (Эдуард Гаврилов) [1974 г., детский, SATRip]

 

Создавать темы 26-Янв-2015 04:29

-Кыш и Двапортфеля-- Производство: СССР. «Мосфильм»
Год выпуска: 1974 г.
Жанр: детский
Продолжительность: 01:15:1
Режиссер: Эдуард Гаврилов-В ролях: Екатерина Кузнецова, Андрей Кондратьев, Людмила Гладунко, Валерий Козинец, Николай Граббе, Владимир Заманский, Леонид Куравлев, Лариса Лужина, Спартак Мишулин, Владимир Носик, Николай Парфенов, Виктор Маркин, Герман Качин, Елена Вольская, Аркадий Маркин.-Описание: Герои фильма - первоклассники Снежана и Алеша Сероглазов, получивший из-за своего маленького роста в первый же день посещения школы прозвище "Двапортфеля", а также маленький щенок Кыш, которого, как оказалось, надо защищать и воспитывать, чтобы оставить дома навсегда.-Качество видео: SATRip
Контейнер: AVI
Видео кодек: XviD
Аудио кодек: MP3
Видео: 512 x 384; 914 kbps; 25 fps; 0.186 bit/pixel
Аудио: 96 kbps; 1 ch; 44.1 KHz.
Cубтитры: отсутствуют

Media Info

General
Complete name : D:\Torrent\Kish_i_Dvaportfela_[Pirat.ca].torrent.avi
Format : AVI
Format/Info : Audio Video Interleave
File size : 549 MiB
Duration : 1h 15mn
Overall bit rate : 1 020 Kbps
Movie name : Kysh i Dvaportfelja
Director : Mosfil'm
Recorded date : 1974
Writing application : VirtualDubMod 1.5.10.1 (build 2366/release)
Writing library : VirtualDub build 35390/release
Comment : Lame MP3 44,1 kHz Mono @ 96 kbps
Video
ID : 0
Format : MPEG-4 Visual
Format profile : Advanced [email protected]
Format settings, BVOP : 2
Format settings, QPel : No
Format settings, GMC : No warppoints
Format settings, Matrix : Default (H.263)
Muxing mode : Packed bitstream
Codec ID : XVID
Codec ID/Hint : XviD
Duration : 1h 15mn
Bit rate : 914 Kbps
Width : 512 pixels
Height : 384 pixels
Display aspect ratio : 4:3
Frame rate : 25.000 fps
Color space : YUV
Chroma subsampling : 4:2:0
Bit depth : 8 bits
Scan type : Progressive
Compression mode : Lossy
Bits/(Pixel*Frame) : 0.186
Stream size : 492 MiB (90%)
Writing library : XviD 73
Audio
ID : 1
Format : MPEG Audio
Format version : Version 1
Format profile : Layer 3
Codec ID : 55
Codec ID/Hint : MP3
Duration : 1h 15mn
Bit rate mode : Constant
Bit rate : 96.0 Kbps
Channel(s) : 1 channel
Sampling rate : 44.1 KHz
Compression mode : Lossy
Stream size : 51.7 MiB (9%)
Alignment : Split accross interleaves
Interleave, duration : 40 ms (1.00 video frame)
Interleave, preload duratio : 500 ms

Скриншоты

Раздача

Раздача с 14.00 до 2.30 (время московское)
Яндекс.Метрика
Рейтинг@Mail.ru