Граница времени (2015) SATRip (серии 1-19 из 20)(обновляемая)

 

Создавать темы 16-Фев-2015 20:08

-Граница времени (2015) SATRip (серии 1-19 из 20) (обновляемая)- Производство: Россия / кинокомпания "Русское"
Жанр: Детектив, фантастика, приключения
Режиссер: Филипп Коршунов
Актеры: Екатерина Маликова, Александр Кульков, Александра Булычёва, Павел Савчук, Борис Репетур, Матвей Матвеев (II), Антон Мамин, Александр Иванов (XIV), Владислав Дунаев, Ангелина Притуманова, Леонид Ворон, Алексей Красноцветов, Александр Лепихов, Дмитрий Новиков (III)
Описание фильма:
Сериал расскажет о секретной службе, отслеживающей незаконные перемещения во времени. Несмотря на запреты спецслужб, движимый честолюбием ученый Штерн выкладывает свою программу «машины времени» в интернет. Буквально через пару часов ссылку удаляют. Но ее уже скачали десятки миллионов людей! Теперь она есть у каждого жителя Земли, и это грозит настоящей катастрофой! Чтобы спасти планету от хаоса, по всему мира была создана специальная секретная служба контроля за неприкосновенностью временного пространства — «Граница времени». В том числе и в России. В спецподразделение отобраны лучшие оперативники и аналитики страны. Любые нарушения отслеживаются и жестоко караются. Все операции строго засекречены. Для того чтобы найти преступника, опергруппе придется отправиться вслед за ним. И все не так просто: вызвать к себе подозрения в прошлом — смертельно опасно.
Дата российской премьеры: 16 февраля 2015
Качество видео: SATRip
Продолжительность: ~00:47:00 серия
Видеокодек: XviD
Формат: AVI
Битрейт видео: ~1800 kbps avg
Размер кадра: 704x448, 25 fps
Аудиокодек: МР3, 2 ch
Битрейт аудио: 128.00 kbps

MediaInfo

Общее
Полное имя : D:\граница времени\Granica.vremeni.01.avi
Формат : AVI
Формат/Информация : Audio Video Interleave
Размер файла : 661 Мбайт
Продолжительность : 47 м.
Общий поток : 1931 Кбит/сек
Программа кодирования : VirtualDubMod 1.5.10.3 | www.virtualdub-fr.org || (build 2550/release)
Библиотека кодирования : VirtualDub build 29808/release
Видео
Идентификатор : 0
Формат : MPEG-4 Visual
Профиль формата : Advanced [email protected]
Параметр BVOP формата : 2
Параметр QPel формата : Нет
Параметр GMC формата : Без точки перехода
Параметр матрицы формата : Default (MPEG)
Идентификатор кодека : XVID
Идентификатор кодека/Подсказка : XviD
Продолжительность : 47 м.
Битрейт : 1793 Кбит/сек
Ширина : 704 пикселя
Высота : 448 пикселей
Соотношение сторон : 16:10
Частота кадров : 25,000 кадров/сек
Цветовое пространство : YUV
Субдискретизация насыщенности : 4:2:0
Битовая глубина : 8 бит
Тип развёртки : Прогрессивная
Метод сжатия : С потерями
Бит/(Пиксели*Кадры) : 0.227
Размер потока : 613 Мбайт (93%)
Библиотека кодирования : XviD 1.2.1 (UTC 2008-12-04)
Аудио
Идентификатор : 1
Формат : MPEG Audio
Версия формата : Version 1
Профиль формата : Layer 3
Идентификатор кодека : 55
Идентификатор кодека/Подсказка : MP3
Продолжительность : 47 м.
Вид битрейта : Постоянный
Битрейт : 128 Кбит/сек
Каналы : 2 канала
Частота : 48,0 КГц
Метод сжатия : С потерями
Размер потока : 43,8 Мбайт (7%)
Выравнивание : Соединение по промежуткам
Продолжительность промежутка : 40 мс. (1,00 видеокадр)
Время предзагрузки промежутка : 504 мс.
Библиотека кодирования : LAME3.99r
Настройки программы : -m s -V 4 -q 1 -lowpass 17 -b 128

Внимание! Раздача ведётся путём добавления новых серий

Внимание! Раздача ведётся путём добавления новых серий; при каждом добавлении создаётся новый торрент.
Чтобы начать докачку новой серии, пользователям необходимо сделать следующее:
1. Остановить скачивание;
2. Удалить старый торрент у себя из клиента (старые серии удалять не надо);
3. Скачать новый торрент и запустить его у себя в клиенте вместо старого, при этом указать клиенту путь в старую папку куда и должно происходить скачивание новых серий. Ваш клиент при этом должен произвести хеширование (проверку) старой папки и будет докачивать только те серии, которых у вас ещё нет. Старые серии при этом не удаляются, а продолжают раздаваться! Eсли вы уже удалили старые серии, то предотвратить повторную закачку старых серий можно, отжав галочку в соответствующих местах при запуске нового торрента.
Скриншоты:Раздача обновлена, добавлена 3-16 серий.
Время раздачи: 24/7, до 5 скачавших.

Информация от vladios13


Раздача обновлена, добавлена 19 серия.


Последний раз редактировалось: vladios13 (2015-03-18 18:36), всего редактировалось 1 раз
Яндекс.Метрика
Рейтинг@Mail.ru