Сонная Лощина / Sleepy Hollow / Сезон 2 / Серии: 17 из 18) (Кен Олин / Ken Olin, ...) [2013г., фэнтези, триллер, драма, детектив, приключения, ..., WEB-DLRip] MVO (LostFilm) [обновляемая]

 

Создавать темы 21-Фев-2015 07:18

Сонная Лощина / Sleepy Hollow
«Evil takes hold»
- Русское название: Сонная Лощина
Оригинальное название: Sleepy Hollow
Страна: США
Год выпуска: 2013
Жанр: фэнтези, триллер, драма, детектив, приключения, ...-Дата мировой премьеры: 16 сентября 2013-Озвучка: Студия
Перевод: Многоголосый закадровый, профессиональный-Режиссер: Кен Олин / Ken Olin, Пол А. Эдвардс / Paul A. Edwards, Дуглас Арниокоски / Douglas Aarniokoski, ...
Актеры: Том Мисон, Николь Бахари, Орландо Джонс, Катя Винтер, Линди Гринвуд, Николас Гонсалес, Джон Чо, Джон Ноубл, Джани Уоллес, Амандла Стенберг, ...-Описание фильма:
После смерти Икабода Крейна в одной из битв в войне за независимость на стороне сил генерала Джорджа Вашингтона, Икабод восстаёт из небытия в местечке Сонная лощина штата Нью-Йорк. Одновременно с ним восстаёт из мёртвых всадник без головы, голову которому Икабод Крейн отрубил перед собственной гибелью. Всадник без головы начинает убивать людей и главный герой должен остановить его, действуя совместно с лейтенантом полиции Эбби Миллс.-Сезон: 2
Серии: 17 из 18 серий
Продолжительность: ~ 00:43:00 мин серия-
Качество видео: WEB-DLRip
Контейнер: AVI
Видео кодек: XviD
Аудио кодек: MP3
Видео: MPEG-4 Visual at 1172 Кбит/сек: 720 x 400 (1.800) at 23.976 fps: 0.17 Бит/Пиксели
Аудио Rus: MPEG Audio at 192 Кбит/сек: 2 канала, 48,0 КГц |LostFilm|
Cубтитры: отсутствуют
- -

Список серий:

  • Это война (This Is War)
  • Сородич (The Kindred)
  • Корень всех зол (Root of All Evil)
  • Иди, куда я повелел (Go Where I Send Thee...)
  • Плачущая леди (The Weeping Lady)
  • Бездна начнет всматриваться в тебя (And the Abyss Gazes Back)
  • Избавление (Deliverance)
  • Бессердечная (Heartless)
  • Мама (Mama)
  • Шедевр (Magnum Opus)
  • Акеда (The Akeda)
  • Потерянный рай (Paradise Lost)
  • Порочащий портрет (Pittura Infamante)
  • Кали Юга (Kali Yuga)
  • Колдун (Spellcaster)
  • Что скрывает ложь (What Lies Beneath)
  • Пробуждение (Awakening)
-

MediaInfo:

Общее
Полное имя : E:\_Сериалы\_Сериалы\Сонная Лощина\Sleepy.Hollow.S02E01.rus.LostFilm.TV.avi
Формат : AVI
Формат/Информация : Audio Video Interleave
Размер файла : 434 Мбайт
Продолжительность : 44 м.
Режим общего битрейта : Переменный
Общий поток : 1372 Кбит/сек
Программа кодирования : Nandub v1.0rc2
Библиотека кодирования : Nandub build 1853/release
Видео
Идентификатор : 0
Формат : MPEG-4 Visual
Профиль формата : Advanced [email protected]
Параметр BVOP формата : Нет
Параметр QPel формата : Нет
Параметр GMC формата : Без точки перехода
Параметр матрицы формата : Default (H.263)
Идентификатор кодека : XVID
Идентификатор кодека/Подсказка : XviD
Продолжительность : 44 м.
Битрейт : 1172 Кбит/сек
Ширина : 720 пикселей
Высота : 400 пикселей
Соотношение сторон : 16:9
Частота кадров : 23,976 кадра/сек
Цветовое пространство : YUV
Субдискретизация насыщенности : 4:2:0
Битовая глубина : 8 бит
Тип развёртки : Прогрессивная
Метод сжатия : С потерями
Бит/(Пиксели*Кадры) : 0.170
Размер потока : 370 Мбайт (85%)
Библиотека кодирования : XviD 1.2.1 (UTC 2008-12-04)
Аудио
Идентификатор : 1
Формат : MPEG Audio
Версия формата : Version 1
Профиль формата : Layer 3
Режим : Joint stereo
Расширение режима : MS Stereo
Идентификатор кодека : 55
Идентификатор кодека/Подсказка : MP3
Продолжительность : 44 м.
Вид битрейта : Переменный
Битрейт : 192 Кбит/сек
Каналы : 2 канала
Частота : 48,0 КГц
Метод сжатия : С потерями
Размер потока : 59,2 Мбайт (14%)
Выравнивание : Соединение по промежуткам
Продолжительность промежутка : 24 мс. (0,58 видеокадр)
Время предзагрузки промежутка : 487 мс.
Библиотека кодирования : LAME3.97b
Настройки программы : -m j -V 4 -q 3 -lowpass 18.6 --abr 192
-

Скриншот c названием фильма

-Скриншоты:
-

Еще

-

Внимание! Раздача ведётся путём добавления новых серий!

Раздача ведётся путём добавления новых серий; при каждом добавлении создаётся новый торрент.
Чтобы начать докачку новой серии, пользователям необходимо сделать следующее:
1. остановить скачивание,
2. удалить старый торрент у себя из клиента (старые серии удалять не надо),
3. скачать новый торрент и запустить его у себя в клиенте вместо старого, при этом указать клиенту путь в старую папку, куда и должно происходить скачивание новых серий.
Ваш клиент при этом должен произвести хеширование (проверку) старой папки (если не производит сам - помогите ему сделать это), и будет докачивать только те серии которых у вас ещё нет. Старые серии при этом не удаляются, а продолжают раздаваться!
Eсли вы уже удалили старые серии, то предотвратить повторную закачку старых серий можно, отжав галочку в соответствующих местах при запуске нового торрента. По возможности, желательно не удалять старые серии как можно дольше, чтобы релизёр не столько продолжал раздавать старые серии, а смог сконцентрироваться на новых.
Совет для тех, кто не хочет ждать перехеширования:
Создайте ещё одну папку рядом с папкой сериала (рядом, а не в ней!!!). Каждую новую серию после удачной загрузки копируйте в новую папку так чтобы ваша основная папка всегда была пуста. Когда ваш новый торрент предложит вам закачать все файлы, выберете только последнюю. Для сидирования же укажите адрес новой папки.
Как закачать отдельный файл из торрента или докачать ранее пропущенные файлы торрента!
-

Как закачать отдельный файл

1. Открыть торрент
2. Снять галки с тех файлов торрента, которые мы не хотим закачивать. Оставляем только на нужных нам файлах (файле).
3. Нажать О.К.
В клиенте utorrent
Инструкция
1) Открыть торрент

2) Снять галки с тех файлов торрента, которые мы не хотим закачивать:
* либо вручную, снимая с каждого файла галку( скрин №1)
* либо, нажав кнопку "Снять метки (Select None)", сняв сразу со всех файлов(скрин №2)
№1

№2

Оставляем только на нужных нам файлах (файле).

3)Нажать О.К
-Добавлена семнадцатая серия второго сезона
Яндекс.Метрика
Рейтинг@Mail.ru