[ Сегодня на трекере фрилич! Идет свободное скачивание без начисления Download ]

Вне времени / The Lovers (Роланд Жоффе / Roland Joffé) [2015 г., фантастика, боевик, мелодрама, приключения, WEB-DLRip-AVC] VO (ICG) + Sub (Eng) + Original (Eng)

 

Создавать темы 23-Фев-2015 04:57

-Вне времени / The Lovers-- Производство: Индия, Бельгия, Австралия / Bliss Media, Corsan, Limelight International Media Entertainment, Neelmudra Entertainment
Год выпуска: 2015 г.
Жанр: фантастика, боевик, мелодрама, приключения
Продолжительность: 01:49:21
Мировая премьера: 13 февраля 2015
Российская премьера: 28 мая 2015, «Люксор»
Перевод: Любительский (одноголосый, закадровый) [ICG - озвучка, Rummata - перевод текста]
Оригинальный аудиопоток: английский
Режиссер: Роланд Жоффе / Roland Joffé-В ролях: Джош Хартнетт, Бипаша Басу, Абхай Деол, Тэмзин Эджертон, Элис Энглерт, Клер ван дер Бом, Махеш Джаду, Симона Кэссел, Темина Санни-Описание: Это история о храбрости и великой силе любви. Археолог-подводник Джей Финнел вместе с женой исследует затонувшее торговое судно XVIII века. Однажды, пытаясь спасти супругу, он получает опасное ранение и впадает в кому. Борясь со смертью, герой переступает грань реальности и переносится в Индию 1778 года, где начинает жить жизнью британского офицера Джеймса Стюарта, поглощенного страстью к прекрасной воительнице Туладже.-
Качество видео: WEB-DLRip-AVC
Контейнер: MKV
Видео кодек: H.264
Аудио кодек: AC3
Видео: 2000 Кбит/сек, 960х396 (2,40:1), 23,976 кадра/сек, 0.219 Бит/(Пиксели*Кадры)
Аудио №1: 224 Кбит/сек, 2 канала, 48,0 КГц (Русский)
Аудио №2: 384 Кбит/сек, 6 каналов, 48,0 КГц, (Английский)
Cубтитры: английские
Формат субтитров: softsub (SRT)

Media Info

Общее
Уникальный идентификатор                 : 181623897412835984631089611721608952287 (0x88A37D81F739ED989F23154DE3B279DF)
Полное имя                               : D:\movies\pirat.ca\Вне времени .2015.WEB-DL.AVC.mkv
Формат                                   : Matroska
Версия формата                           : Version 4 / Version 2
Размер файла                             : 1,99 Гбайт
Продолжительность                        : 1 ч. 49 м.
Общий поток                              : 2608 Кбит/сек
Дата кодирования                         : UTC 2010-02-22 21:41:31
Программа кодирования                    : mkvmerge v5.9.0 ('On The Loose') built on Dec  9 2012 15:37:01
Библиотека кодирования                   : libebml v1.3.0 + libmatroska v1.4.0
Видео
Идентификатор                            : 1
Формат                                   : AVC
Формат/Информация                        : Advanced Video Codec
Профиль формата                          : [email protected]
Параметр CABAC формата                   : Нет
Параметр ReFrames формата                : 1 кадр
Режим смешивания                         : Header stripping
Идентификатор кодека                     : V_MPEG4/ISO/AVC
Продолжительность                        : 1 ч. 49 м.
Битрейт                                  : 2000 Кбит/сек
Ширина                                   : 960 пикселей
Высота                                   : 396 пикселей
Соотношение сторон                       : 2,40:1
Режим частоты кадров                     : Постоянный
Частота кадров                           : 23,976 кадра/сек
Цветовое пространство                    : YUV
Субдискретизация насыщенности            : 4:2:0
Битовая глубина                          : 8 бит
Тип развёртки                            : Прогрессивная
Бит/(Пиксели*Кадры)                      : 0.219
Размер потока                            : 1,49 Гбайт (75%)
Библиотека кодирования                   : x264 core 120
Настройки программы                      : cabac=0 / ref=1 / deblock=1:0:0 / analyse=0x1:0x111 / me=hex / subme=2 / psy=1 / psy_rd=1.00:0.00 / mixed_ref=0 / me_range=16 / chroma_me=1 / trellis=0 / 8x8dct=0 / cqm=0 / deadzone=21,11 / fast_pskip=1 / chroma_qp_offset=0 / threads=6 / sliced_threads=0 / nr=0 / decimate=1 / interlaced=0 / bluray_compat=0 / constrained_intra=0 / bframes=0 / weightp=0 / keyint=250 / keyint_min=23 / scenecut=40 / intra_refresh=0 / rc_lookahead=10 / rc=abr / mbtree=1 / bitrate=2000 / ratetol=1.0 / qcomp=0.60 / qpmin=0 / qpmax=69 / qpstep=4 / ip_ratio=1.40 / aq=1:1.00
Язык                                     : English
Default                                  : Да
Forced                                   : Нет
Аудио #1
Идентификатор                            : 2
Формат                                   : AC-3
Формат/Информация                        : Audio Coding 3
Расширение режима                        : CM (complete main)
Параметр Endianness формата              : Big
Режим смешивания                         : Header stripping
Идентификатор кодека                     : A_AC3
Продолжительность                        : 1 ч. 49 м.
Вид битрейта                             : Постоянный
Битрейт                                  : 224 Кбит/сек
Каналы                                   : 2 канала
Расположение каналов                     : Front: L R
Частота                                  : 48,0 КГц
Битовая глубина                          : 16 бит
Метод сжатия                             : С потерями
Размер потока                            : 175 Мбайт (9%)
Язык                                     : Russian
Default                                  : Да
Forced                                   : Нет
Аудио #2
Идентификатор                            : 3
Формат                                   : AC-3
Формат/Информация                        : Audio Coding 3
Расширение режима                        : CM (complete main)
Параметр Endianness формата              : Big
Режим смешивания                         : Header stripping
Идентификатор кодека                     : A_AC3
Продолжительность                        : 1 ч. 49 м.
Вид битрейта                             : Постоянный
Битрейт                                  : 384 Кбит/сек
Каналы                                   : 6 каналов
Расположение каналов                     : Front: L C R, Side: L R, LFE
Частота                                  : 48,0 КГц
Битовая глубина                          : 16 бит
Метод сжатия                             : С потерями
Размер потока                            : 300 Мбайт (15%)
Язык                                     : English
Default                                  : Нет
Forced                                   : Нет
Текст
Идентификатор                            : 4
Формат                                   : UTF-8
Идентификатор кодека                     : S_TEXT/UTF8
Идентификатор кодека/Информация          : UTF-8 Plain Text
Язык                                     : English
Default                                  : Нет
Forced                                   : Нет
Меню
00:00:00.000                             : en:1
00:10:37.000                             : en:2
00:19:57.000                             : en:3
00:30:47.000                             : en:4
00:39:50.000                             : en:5
00:51:51.000                             : en:6
00:59:01.000                             : en:7
01:10:01.000                             : en:8
01:20:48.000                             : en:9
01:29:44.000                             : en:10
01:41:53.000                             : en:11

Скриншоты

Яндекс.Метрика
Рейтинг@Mail.ru