Ночь в музее: Секрет гробницы / Night at the Museum: Secret of the Tomb (2014,фэнтези, комедия, приключения, семейный) HDRip | Чистый звук

 

Создавать темы 26-Фев-2015 21:55

-Ночь в музее: Секрет гробницы / Night at the Museum: Secret of the Tomb HDRip- Информация о фильме
Название: Ночь в музее: Секрет гробницы
Оригинальное название: Night at the Museum: Secret of the Tomb
Год выхода: 2014
Жанр: фэнтези, комедия, приключения, семейный
Режиссер: Шон Леви
В ролях: Бен Стиллер, Робин Уильямс, Оуэн Уилсон, Стив Куган, Рики Джервэйс, Дэн Стивенс, Ребел Уилсон, Скайлер Джизондо, Рами Малек, Патрик Галлахер
О фильме: Ночной сторож Музея естественной истории в Нью-Йорке Ларри Дэйли в отчаянии: его друзья-экспонаты начинают странно себя вести, а всё потому, что оживляющая их древнеегипетская золотая пластина разрушается. Только отец фараона Ахкменра знает тайну магического артефакта, но вот беда — его мумия далеко, она выставлена в Британском музее естествознания! Команда любимых героев предпринимает беспрецедентное путешествие в Лондон. Они должны объединиться с британскими экспонатами и рискнуть всем, чтобы восстановить золотую пластину до того, как Ларри потеряет своих друзей навсегда.

Выпущено: США, Великобритания, 20th Century Fox Film Corporation
Продолжительность: 01:37:49
Перевод: Дублированный [Чистый звук]
Файл
Кодек: XviD
Качество: HDRip
Видео: XviD, 935 Кбит/с, 656x352
Звук: МР3, 2 ch, 128 Кбит/с

MI

Общее
Полное имя : D:ВидеоNoch.v.muzee.Sekret.Grobnicy.2014.by Vovan366(ExKinoRay).avi
Формат : AVI
Формат/Информация : Audio Video Interleave
Размер файла : 750 Мбайт
Продолжительность : 1 ч. 37 м.
Общий поток : 1072 Кбит/сек
Программа кодирования : VirtualDubMod 1.5.10.3 | www.virtualdub-fr.org || (build 2550/release)
Библиотека кодирования : VirtualDubMod build 2550/release
Видео
Идентификатор : 0
Формат : MPEG-4 Visual
Профиль формата : Advanced [email protected]
Параметр BVOP формата : 2
Параметр QPel формата : Нет
Параметр GMC формата : Без точки перехода
Параметр матрицы формата : Выборочная
Идентификатор кодека : XVID
Идентификатор кодека/Подсказка : XviD
Продолжительность : 1 ч. 37 м.
Битрейт : 935 Кбит/сек
Ширина : 656 пикселей
Высота : 352 пикселя
Соотношение сторон : 1,85:1
Частота кадров : 23,976 кадра/сек
Цветовое пространство : YUV
Субдискретизация насыщенности : 4:2:0
Битовая глубина : 8 бит
Тип развёртки : Прогрессивная
Метод сжатия : С потерями
Бит/(Пиксели*Кадры) : 0.169
Размер потока : 654 Мбайт (87%)
Библиотека кодирования : XviD 73
Аудио
Идентификатор : 1
Формат : MPEG Audio
Версия формата : Version 1
Профиль формата : Layer 3
Идентификатор кодека : 55
Идентификатор кодека/Подсказка : MP3
Продолжительность : 1 ч. 37 м.
Вид битрейта : Постоянный
Битрейт : 128 Кбит/сек
Каналы : 2 канала
Частота : 48,0 КГц
Метод сжатия : С потерями
Размер потока : 89,6 Мбайт (12%)
Выравнивание : Соединение по промежуткам
Продолжительность промежутка : 42 мс. (1,00 видеокадр)
Время предзагрузки промежутка : 504 мс.
Библиотека кодирования : LAME3.99r
Настройки программы : -m s -V 4 -q 2 -lowpass 17 -b 128

Скриншоты

Яндекс.Метрика
Рейтинг@Mail.ru