Книга жизни / The Book of Life (2014,фэнтези, мелодрама, комедия, приключения, семейный) HDRip | iTunes Russia

 

Создавать темы 28-Фев-2015 13:24

-Книга жизни / The Book of Life-Год выпуска: 2014
Страна: США
Жанр: фэнтези, мелодрама, комедия, приключения, семейный
Продолжительность: 01:35:24
Перевод: Дублированный [iTunes Russia]
Субтитры: Нет-Режиссер: Хорхе Р. Гутьеррес / Jorge R. Gutiérrez-В ролях: Диего Луна (Manolo, озвучка, озвучка), Зои Салдана (Maria, озвучка, озвучка), Ченнинг Татум (Joaquin, озвучка, озвучка), Рон Перлман (Xibalba, озвучка, озвучка), Кристина Эпплгейт (Mary Beth, озвучка, озвучка), Айс Кьюб (Candle Maker, озвучка, озвучка), Кейт дель Кастильо (La Muerte, озвучка, озвучка), Гектор Элизондо (Carlos Sanchez, озвучка, озвучка), Дэнни Трехо (Skeleton Luis, озвучка, озвучка), Карлос Аласраки (General Posada / Dali / Chuy, озвучка, озвучка), Ана де ла Регера (Skeleton Carmen, озвучка, озвучка), Эмиль-Бастьен Боффар (Young Manolo, озвучка, озвучка)-Описание:
В мультфильме описывается романтическая история любви на фоне празднования Дня мертвых в Мексике.-
MPAA: PG - Рекомендуется присутствие родителей-Качество: HDRip [исх.: BDRip 1080p]
Формат: AVI
Видео кодек: XviD
Аудио кодек: AC3
Видео: 720x304 (2.37:1), 23.976 fps, XviD build 73 ~1780 kbps avg, 0.34 bit/pixel
Аудио: 48 kHz, AC3 Dolby Digital, 2/0 (L,R) ch, ~384 kbps
-

Скриншоты

MediaInfo

General
Complete name : Kniga.Jizni.2014.D.HDRip.1.45Gb_by_Twi7ter.avi
Format : AVI
Format/Info : Audio Video Interleave
File size : 1.45 GiB
Duration : 1h 35mn
Overall bit rate : 2 171 Kbps
Movie name : Kniga.Jizni.2014.D.HDRip.1.45Gb_by_Twi7ter
Director : Twi7ter
Genre : Fantasy/Comedy/Adventur/Family
Writing application : VirtualDubMod 1.5.10.3 (build 2550/release)
Original source form/Name : Cartoon
Video
ID : 0
Format : MPEG-4 Visual
Format profile : Advanced [email protected]
Format settings, BVOP : 1
Format settings, QPel : No
Format settings, GMC : No warppoints
Format settings, Matrix : Custom
Codec ID : XVID
Codec ID/Hint : XviD
Duration : 1h 35mn
Bit rate : 1 777 Kbps
Width : 720 pixels
Height : 304 pixels
Display aspect ratio : 2.35:1
Frame rate : 23.976 fps
Color space : YUV
Chroma subsampling : 4:2:0
Bit depth : 8 bits
Scan type : Progressive
Compression mode : Lossy
Bits/(Pixel*Frame) : 0.339
Stream size : 1.18 GiB (82%)
Writing library : XviD 73
Audio
ID : 1
Format : AC-3
Format/Info : Audio Coding 3
Mode extension : CM (complete main)
Format settings, Endianness : Big
Codec ID : 2000
Duration : 1h 35mn
Bit rate mode : Constant
Bit rate : 384 Kbps
Channel(s) : 2 channels
Channel positions : Front: L R
Sampling rate : 48.0 KHz
Bit depth : 16 bits
Compression mode : Lossy
Stream size : 262 MiB (18%)
Alignment : Split accross interleaves
Interleave, duration : 42 ms (1.00 video frame)
Interleave, preload duration : 500 ms
Яндекс.Метрика
Рейтинг@Mail.ru