[ Сегодня на трекере фрилич! Идет свободное скачивание без начисления Download ]

Звездная карта / Maps to the Stars (2014) BDRip 720p | Лицензия

 

Создавать темы 10-Мар-2015 22:18

-Звездная карта / Maps to the Stars-Информация о фильме
Название: Звездная карта
Оригинальное название: Maps to the Stars
Год выхода: 2014
Жанр: драма
Режиссер: Дэвид Кроненберг / David Cronenberg
В ролях: Джулианна Мур, Миа Васиковска, Джон Кьюсак, Эван Бёрд, Оливия Уильямс, Роберт Паттинсон, Кьяра Гласко, Сара Гадон, Доун Гринхалг, Джонатан Уоттон
О фильме:
Место действия — два голливудских дома. В одном живет стареющая актриса, которая надеется сыграть роль собственной давно погибшей матери — легенды черно-белого кино. Другой особняк — резиденция сверхуспешного психотерапевта, его жены и их сына — 13-летнего миллионера, наркомана и звезды. В оба дома проникает девушка из Флориды, которая подружилась в твиттере с Кэрри Фишер и надеется с ее помощью покорить Лос-Анджелес.
Страна: США, Германия, Франция, Канада
Продолжительность: 01:47:17
Перевод:
Профессиональный многоголосый закадровый (Лицензия)
Авторский одноголосый (С. Визгунов)
Файл
Кодек: x264
Качество: BDRip 720p
Видео: MPEG-4 AVC, 5484 Kбит/с, 1280x690, 25,000 fps
Звук:
Rus, AC3, 448 kb/s (6 ch), 48 kHz - Профессиональный многоголосый закадровый
Rus, DTS, 1510 kb/s (6 ch), 48 kHz - Авторский одноголосый (С. Визгунов)
Eng, DTS, 1510 kb/s (6 ch), 48 kHz
Субтитры: Rus, Eng

MediaInfo

Format : Matroska
Format version : Version 4 / Version 2
File size : 6.84 GiB
Duration : 1h 47mn
Overall bit rate : 9 132 Kbps
Movie name : Звездная карта. (Tonik)
Encoded date : UTC 2015-03-10 17:38:08
Writing application : mkvmerge v7.1.0 ('Good Love') 64bit built on Jul 27 2014 13:06:55
Writing library : libebml v1.3.0 + libmatroska v1.4.1
_STATISTICS_WRITING_APP : mkvmerge v7.1.0 ('Good Love') 64bit built on Jul 27 2014 13:06:55
_STATISTICS_WRITING_DATE_UTC : 2015-03-10 17:38:08
_STATISTICS_TAGS : BPS DURATION NUMBER_OF_FRAMES NUMBER_OF_BYTES
DURATION : 01:38:58.600000000
NUMBER_OF_FRAMES : 1495
NUMBER_OF_BYTES : 39705
Video
ID : 1
Format : AVC
Format/Info : Advanced Video Codec
Format profile : [email protected]
Format settings, CABAC : Yes
Format settings, ReFrames : 9 frames
Codec ID : V_MPEG4/ISO/AVC
Duration : 1h 47mn
Bit rate : 5 484 Kbps
Width : 1 280 pixels
Height : 690 pixels
Display aspect ratio : 1.85:1
Frame rate mode : Constant
Frame rate : 25.000 fps
Color space : YUV
Chroma subsampling : 4:2:0
Bit depth : 8 bits
Scan type : Progressive
Bits/(Pixel*Frame) : 0.248
Stream size : 4.11 GiB (60%)
Writing library : x264 core 142 r2479kMod dd79a61
Encoding settings : cabac=1 / ref=9 / deblock=1:-3:-3 / analyse=0x3:0x133 / me=tesa / subme=10 / psy=1 / fade_compensate=0.00 / psy_rd=1.00:0.05 / mixed_ref=1 / me_range=24 / chroma_me=1 / trellis=2 / 8x8dct=1 / cqm=0 / deadzone=21,11 / fast_pskip=0 / chroma_qp_offset=-3 / threads=6 / lookahead_threads=1 / sliced_threads=0 / nr=0 / decimate=1 / interlaced=0 / bluray_compat=0 / constrained_intra=0 / fgo=0 / bframes=12 / b_pyramid=2 / b_adapt=2 / b_bias=0 / direct=3 / weightb=1 / open_gop=0 / weightp=2 / keyint=250 / keyint_min=25 / scenecut=40 / intra_refresh=0 / rc_lookahead=60 / rc=crf / mbtree=0 / crf=15.7500 / qcomp=0.70 / qpmin=0 / qpmax=69 / qpstep=4 / vbv_maxrate=62500 / vbv_bufsize=78125 / crf_max=0.0 / nal_hrd=none / filler=0 / ip_ratio=1.30 / pb_ratio=1.20 / aq=3:0.80
Language : English
Default : Yes
Forced : No
Matrix coefficients : BT.709
DURATION : 01:47:17.280000000
NUMBER_OF_FRAMES : 160932
NUMBER_OF_BYTES : 4555932731
_STATISTICS_WRITING_APP : mkvmerge v7.1.0 ('Good Love') 64bit built on Jul 27 2014 13:06:55
_STATISTICS_WRITING_DATE_UTC : 2015-03-10 17:38:08
_STATISTICS_TAGS : BPS DURATION NUMBER_OF_FRAMES NUMBER_OF_BYTES
Audio #1
ID : 2
Format : AC-3
Format/Info : Audio Coding 3
Mode extension : CM (complete main)
Format settings, Endianness : Big
Codec ID : A_AC3
Duration : 1h 47mn
Bit rate mode : Constant
Bit rate : 448 Kbps
Channel(s) : 6 channels
Channel positions : Front: L C R, Side: L R, LFE
Sampling rate : 48.0 KHz
Bit depth : 16 bits
Compression mode : Lossy
Stream size : 344 MiB (5%)
Title : MVO
Language : Russian
Default : Yes
Forced : No
Audio #2
ID : 3
Format : DTS
Format/Info : Digital Theater Systems
Mode : 16
Format settings, Endianness : Big
Codec ID : A_DTS
Duration : 1h 47mn
Bit rate mode : Constant
Bit rate : 1 509 Kbps
Channel(s) : 6 channels
Channel positions : Front: L C R, Side: L R, LFE
Sampling rate : 48.0 KHz
Bit depth : 24 bits
Compression mode : Lossy
Stream size : 1.13 GiB (17%)
Title : Визгунов
Language : Russian
Default : No
Forced : No
Audio #3
ID : 4
Format : DTS
Format/Info : Digital Theater Systems
Mode : 16
Format settings, Endianness : Big
Codec ID : A_DTS
Duration : 1h 47mn
Bit rate mode : Constant
Bit rate : 1 509 Kbps
Channel(s) : 6 channels
Channel positions : Front: L C R, Side: L R, LFE
Sampling rate : 48.0 KHz
Bit depth : 24 bits
Compression mode : Lossy
Stream size : 1.13 GiB (17%)
Language : English
Default : No
Forced : No
Text #1
ID : 5
Format : UTF-8
Codec ID : S_TEXT/UTF8
Codec ID/Info : UTF-8 Plain Text
Language : Russian
Default : No
Forced : No
Text #2
ID : 6
Format : UTF-8
Codec ID : S_TEXT/UTF8
Codec ID/Info : UTF-8 Plain Text
Language : English
Default : No
Forced : No
Menu
00:00:00.000 : en:00:00:00.000
00:08:32.320 : en:00:08:32.320
00:20:37.799 : en:00:20:37.799
00:29:15.079 : en:00:29:15.079
00:40:17.519 : en:00:40:17.519
00:50:31.360 : en:00:50:31.360
00:59:57.000 : en:00:59:57.000
01:08:47.600 : en:01:08:47.600
01:19:54.640 : en:01:19:54.640
01:27:56.640 : en:01:27:56.640
01:35:10.680 : en:01:35:10.680
01:41:22.319 : en:01:41:22.319

Скриншоты

Яндекс.Метрика
Рейтинг@Mail.ru