(New Age, Chill Out, Instrumental) VA - Romantic Memories. Instrumental Hits Collection 3CD - 2009, FLAC (tracks+.cue), lossless

 

Создавать темы 11-Мар-2015 11:49

-Romantic Memories. Instrumental Hits Collection 3CD- Жанр: New Age, Chill Out, Instrumental
Носитель: CD
Страна-производитель диска (релиза): Russia
Год издания: 2009
Издатель (лейбл): Blue Music - Landy Star
Аудиокодек: FLAC (*.flac)
Тип рипа: tracks+.cue
Битрейт аудио: lossless
Источник (релизер): oleandris
Наличие сканов в содержимом раздачи: да-CD1 Love Story
Треклист
01. Toso Gianluigi & Rosa Daniele - Luluby (4:03)
02. Toso Gianluigi & Rosa Daniele - Brigt Days (4:44)
03. Toso Gianluigi & Rosa Daniele - Memories (4:21)
04. Toso Gianluigi & Rosa Daniele - Latin Mood (4:19)
05. Toso Gianluigi & Rosa Daniele - Blue Wave (5:40)
06. Toso Gianluigi & Rosa Daniele - Green Island (4:42)
07. Toso Gianluigi & Rosa Daniele - The Call (4:05)
08. Toso Gianluigi & Rosa Daniele - Desert Rose (3:04)
09. Toso Gianluigi & Rosa Daniele - Seventy's Story (3:17)
10. Toso Gianluigi & Rosa Daniele - Kalos (4:00)
11. Toso Gianluigi & Rosa Daniele - White Breath (4:18)
12. Toso Gianluigi & Rosa Daniele - West Land (3:45)
13. Toso Gianluigi - Dialogs (4:06)
14. Toso Gianluigi - In The Garden (4:24)
Время звучания: 00:58:46

Лог создания рипа

Exact Audio Copy V1.0 beta 3 from 29. August 2011
EAC extraction logfile from 29. September 2014, 23:07
Toso Gianluigi & Rosa Daniele / Romamntic Memories - Love Story
Used drive  : PLEXTOR DVDR   PX-L890SA   Adapter: 5  ID: 0
Read mode               : Secure
Utilize accurate stream : Yes
Defeat audio cache      : Yes
Make use of C2 pointers : No
Read offset correction                      : 6
Overread into Lead-In and Lead-Out          : No
Fill up missing offset samples with silence : Yes
Delete leading and trailing silent blocks   : No
Null samples used in CRC calculations       : Yes
Used interface                              : Native Win32 interface for Win NT & 2000
Gap handling                                : Appended to previous track
Used output format              : User Defined Encoder
Selected bitrate                : 896 kBit/s
Quality                         : High
Add ID3 tag                     : No
Command line compressor         : C:\Program Files (x86)\Exact Audio Copy\Flac\flac.exe
Additional command line options : -8 -V -T "ARTIST=%artist%" -T "TITLE=%title%" -T "ALBUM=%albumtitle%" -T "DATE=%year%" -T "TRACKNUMBER=%tracknr%" -T "GENRE=%genre%" -T "COMMENT=ripped by Oleandris" %source%
TOC of the extracted CD
     Track |   Start  |  Length  | Start sector | End sector
    ---------------------------------------------------------
        1  |  0:00.00 |  4:03.09 |         0    |    18233
        2  |  4:03.09 |  4:43.53 |     18234    |    39511
        3  |  8:46.62 |  4:21.03 |     39512    |    59089
        4  | 13:07.65 |  4:19.03 |     59090    |    78517
        5  | 17:26.68 |  5:40.03 |     78518    |   104020
        6  | 23:06.71 |  4:41.47 |    104021    |   125142
        7  | 27:48.43 |  4:05.15 |    125143    |   143532
        8  | 31:53.58 |  3:03.51 |    143533    |   157308
        9  | 34:57.34 |  3:16.51 |    157309    |   172059
       10  | 38:14.10 |  3:59.65 |    172060    |   190049
       11  | 42:14.00 |  4:17.60 |    190050    |   209384
       12  | 46:31.60 |  3:44.72 |    209385    |   226256
       13  | 50:16.57 |  4:05.72 |    226257    |   244703
       14  | 54:22.54 |  4:23.45 |    244704    |   264473
Track  1
     Filename F:\ЗАГРУЗКИ\ Romantic Memories - Love Story (Instrumental Hits Collection) (2009)\01. Toso Gianluigi & Rosa Daniele - Luluby.wav
     Pre-gap length  0:00:02.00
     Peak level 100.0 %
     Extraction speed 5.7 X
     Track quality 100.0 %
     Test CRC F2D98526
     Copy CRC F2D98526
     Track not present in AccurateRip database
     Copy OK
Track  2
     Filename F:\ЗАГРУЗКИ\ Romantic Memories - Love Story (Instrumental Hits Collection) (2009)\02. Toso Gianluigi & Rosa Daniele - Brigt Days.wav
     Pre-gap length  0:00:02.00
     Peak level 100.0 %
     Extraction speed 6.3 X
     Track quality 100.0 %
     Test CRC 785AF068
     Copy CRC 785AF068
     Track not present in AccurateRip database
     Copy OK
Track  3
     Filename F:\ЗАГРУЗКИ\ Romantic Memories - Love Story (Instrumental Hits Collection) (2009)\03. Toso Gianluigi & Rosa Daniele - Memories.wav
     Pre-gap length  0:00:02.00
     Peak level 100.0 %
     Extraction speed 6.8 X
     Track quality 100.0 %
     Test CRC 29963BEF
     Copy CRC 29963BEF
     Track not present in AccurateRip database
     Copy OK
Track  4
     Filename F:\ЗАГРУЗКИ\ Romantic Memories - Love Story (Instrumental Hits Collection) (2009)\04. Toso Gianluigi & Rosa Daniele - Latin Mood.wav
     Pre-gap length  0:00:02.00
     Peak level 100.0 %
     Extraction speed 7.3 X
     Track quality 100.0 %
     Test CRC DFFB63FD
     Copy CRC DFFB63FD
     Track not present in AccurateRip database
     Copy OK
Track  5
     Filename F:\ЗАГРУЗКИ\ Romantic Memories - Love Story (Instrumental Hits Collection) (2009)\05. Toso Gianluigi & Rosa Daniele - Blue Wave.wav
     Pre-gap length  0:00:02.00
     Peak level 100.0 %
     Extraction speed 7.9 X
     Track quality 100.0 %
     Test CRC A9488C5B
     Copy CRC A9488C5B
     Track not present in AccurateRip database
     Copy OK
Track  6
     Filename F:\ЗАГРУЗКИ\ Romantic Memories - Love Story (Instrumental Hits Collection) (2009)\06. Toso Gianluigi & Rosa Daniele - Green Island.wav
     Pre-gap length  0:00:02.00
     Peak level 100.0 %
     Extraction speed 8.2 X
     Track quality 100.0 %
     Test CRC 3124297E
     Copy CRC 3124297E
     Track not present in AccurateRip database
     Copy OK
Track  7
     Filename F:\ЗАГРУЗКИ\ Romantic Memories - Love Story (Instrumental Hits Collection) (2009)\07. Toso Gianluigi & Rosa Daniele - The Call.wav
     Pre-gap length  0:00:02.00
     Peak level 100.0 %
     Extraction speed 8.5 X
     Track quality 100.0 %
     Test CRC 240C3341
     Copy CRC 240C3341
     Track not present in AccurateRip database
     Copy OK
Track  8
     Filename F:\ЗАГРУЗКИ\ Romantic Memories - Love Story (Instrumental Hits Collection) (2009)\08. Toso Gianluigi & Rosa Daniele - Desert Rose.wav
     Pre-gap length  0:00:02.00
     Peak level 100.0 %
     Extraction speed 8.4 X
     Track quality 100.0 %
     Test CRC 349723B7
     Copy CRC 349723B7
     Track not present in AccurateRip database
     Copy OK
Track  9
     Filename F:\ЗАГРУЗКИ\ Romantic Memories - Love Story (Instrumental Hits Collection) (2009)\09. Toso Gianluigi & Rosa Daniele - Seventy's Story.wav
     Pre-gap length  0:00:02.00
     Peak level 100.0 %
     Extraction speed 8.7 X
     Track quality 100.0 %
     Test CRC 2383A462
     Copy CRC 2383A462
     Track not present in AccurateRip database
     Copy OK
Track 10
     Filename F:\ЗАГРУЗКИ\ Romantic Memories - Love Story (Instrumental Hits Collection) (2009)\10. Toso Gianluigi & Rosa Daniele - Kalos.wav
     Pre-gap length  0:00:02.00
     Peak level 100.0 %
     Extraction speed 9.2 X
     Track quality 100.0 %
     Test CRC 602D5EBA
     Copy CRC 602D5EBA
     Track not present in AccurateRip database
     Copy OK
Track 11
     Filename F:\ЗАГРУЗКИ\ Romantic Memories - Love Story (Instrumental Hits Collection) (2009)\11. Toso Gianluigi & Rosa Daniele - White Breath.wav
     Pre-gap length  0:00:02.00
     Peak level 100.0 %
     Extraction speed 9.7 X
     Track quality 100.0 %
     Test CRC EDA7AA9C
     Copy CRC EDA7AA9C
     Track not present in AccurateRip database
     Copy OK
Track 12
     Filename F:\ЗАГРУЗКИ\ Romantic Memories - Love Story (Instrumental Hits Collection) (2009)\12. Toso Gianluigi & Rosa Daniele - West Land.wav
     Pre-gap length  0:00:02.00
     Peak level 100.0 %
     Extraction speed 9.7 X
     Track quality 100.0 %
     Test CRC FF158601
     Copy CRC FF158601
     Track not present in AccurateRip database
     Copy OK
Track 13
     Filename F:\ЗАГРУЗКИ\ Romantic Memories - Love Story (Instrumental Hits Collection) (2009)\13. Toso Gianluigi - Dialogs.wav
     Pre-gap length  0:00:02.00
     Peak level 100.0 %
     Extraction speed 10.1 X
     Track quality 100.0 %
     Test CRC 74A0C306
     Copy CRC 74A0C306
     Track not present in AccurateRip database
     Copy OK
Track 14
     Filename F:\ЗАГРУЗКИ\ Romantic Memories - Love Story (Instrumental Hits Collection) (2009)\14. Toso Gianluigi - In The Garden.wav
     Pre-gap length  0:00:02.00
     Peak level 100.0 %
     Extraction speed 8.8 X
     Track quality 99.9 %
     Test CRC AFDF7F3E
     Copy CRC AFDF7F3E
     Track not present in AccurateRip database
     Copy OK
None of the tracks are present in the AccurateRip database
No errors occurred
End of status report
---- CUETools DB Plugin V2.1.3
[CTDB TOCID: W_zXO3qjjdqlTH1y2GPEq6tvWrI-] disk not present in database, Submit result: W_zXO3qjjdqlTH1y2GPEq6tvWrI- has been uploaded
==== Log checksum 7C526937D3BD285BC1864E5AF151AFC77CB2A65D0E393D224B7B5C74CC9D346D ====
-

CD2 Relax

Треклист
01. Medwyn Goodall - Twin Moons (7:45)
02. Kevin Kendle - Cirrostratus (7:12)
03. Tim Wheater - Wave A Magic Spell (5:21)
04. Howard Green - Winter Garden (7:59)
05. Asha - House Of Spirits (3:01)
06. Philip Chapman - Angel Dance (4:36)
07. LagoonWest - Ocean Floor (2:39)
08. Helen O'Hara - Elegy II (8:30)
09. Medwyn Goodall - The Wildreness Within (5:01)
10. Kevin Kendle - Roses (5:32)
11. Howard Green - Rainbow (5:32)
Время звучания: 1:03:08

Лог создания рипа

Exact Audio Copy V1.0 beta 3 from 29. August 2011
EAC extraction logfile from 29. September 2014, 17:32
Various / Romantic Memories - Relax
Used drive  : PLEXTOR DVDR   PX-L890SA   Adapter: 5  ID: 0
Read mode               : Secure
Utilize accurate stream : Yes
Defeat audio cache      : Yes
Make use of C2 pointers : No
Read offset correction                      : 6
Overread into Lead-In and Lead-Out          : No
Fill up missing offset samples with silence : Yes
Delete leading and trailing silent blocks   : No
Null samples used in CRC calculations       : Yes
Used interface                              : Native Win32 interface for Win NT & 2000
Gap handling                                : Appended to previous track
Used output format              : User Defined Encoder
Selected bitrate                : 896 kBit/s
Quality                         : High
Add ID3 tag                     : No
Command line compressor         : C:\Program Files (x86)\Exact Audio Copy\Flac\flac.exe
Additional command line options : -8 -V -T "ARTIST=%artist%" -T "TITLE=%title%" -T "ALBUM=%albumtitle%" -T "DATE=%year%" -T "TRACKNUMBER=%tracknr%" -T "GENRE=%genre%" -T "COMMENT=ripped by Oleandris" %source%
TOC of the extracted CD
     Track |   Start  |  Length  | Start sector | End sector
    ---------------------------------------------------------
        1  |  0:00.00 |  7:45.04 |         0    |    34878
        2  |  7:45.04 |  7:12.14 |     34879    |    67292
        3  | 14:57.18 |  5:21.35 |     67293    |    91402
        4  | 20:18.53 |  7:59.20 |     91403    |   127347
        5  | 28:17.73 |  3:01.02 |    127348    |   140924
        6  | 31:19.00 |  4:36.17 |    140925    |   161641
        7  | 35:55.17 |  2:38.72 |    161642    |   173563
        8  | 38:34.14 |  8:30.00 |    173564    |   211813
        9  | 47:04.14 |  5:01.02 |    211814    |   234390
       10  | 52:05.16 |  5:31.65 |    234391    |   259280
       11  | 57:37.06 |  5:31.39 |    259281    |   284144
Track  1
     Filename F:\ЗАГРУЗКИ\ Romantic Memories - Relax (Instrumental Hits Collection) (2009)\01. Medwyn Goodall - Twin Moons.wav
     Pre-gap length  0:00:02.00
     Peak level 89.6 %
     Extraction speed 2.3 X
     Track quality 100.0 %
     Test CRC 2EEFB3A4
     Copy CRC 2EEFB3A4
     Accurately ripped (confidence 1)  [73F5F0DF]  (AR v2)
     Copy OK
Track  2
     Filename F:\ЗАГРУЗКИ\ Romantic Memories - Relax (Instrumental Hits Collection) (2009)\02. Kevin Kendle - Cirrostratus.wav
     Peak level 100.0 %
     Extraction speed 2.7 X
     Track quality 100.0 %
     Test CRC D52A92E3
     Copy CRC D52A92E3
     Accurately ripped (confidence 1)  [39CC8828]  (AR v2)
     Copy OK
Track  3
     Filename F:\ЗАГРУЗКИ\ Romantic Memories - Relax (Instrumental Hits Collection) (2009)\03. Tim Wheater - Wave A Magic Spell.wav
     Peak level 84.5 %
     Extraction speed 2.9 X
     Track quality 100.0 %
     Test CRC 0F38315E
     Copy CRC 0F38315E
     Accurately ripped (confidence 1)  [3E2C62EA]  (AR v2)
     Copy OK
Track  4
     Filename F:\ЗАГРУЗКИ\ Romantic Memories - Relax (Instrumental Hits Collection) (2009)\04. Howard Green - Winter Garden.wav
     Peak level 89.9 %
     Extraction speed 3.3 X
     Track quality 100.0 %
     Test CRC D90ACCBC
     Copy CRC D90ACCBC
     Accurately ripped (confidence 1)  [84267A4B]  (AR v2)
     Copy OK
Track  5
     Filename F:\ЗАГРУЗКИ\ Romantic Memories - Relax (Instrumental Hits Collection) (2009)\05. Asha - House Of Spirits.wav
     Peak level 74.9 %
     Extraction speed 3.1 X
     Track quality 100.0 %
     Test CRC 559713F9
     Copy CRC 559713F9
     Accurately ripped (confidence 1)  [0181D45B]  (AR v2)
     Copy OK
Track  6
     Filename F:\ЗАГРУЗКИ\ Romantic Memories - Relax (Instrumental Hits Collection) (2009)\06. Philip Chapman - Angel Dance.wav
     Peak level 82.8 %
     Extraction speed 2.6 X
     Track quality 99.9 %
     Test CRC 6C32F2FC
     Copy CRC 6C32F2FC
     Accurately ripped (confidence 1)  [0DB5C2E5]  (AR v2)
     Copy OK
Track  7
     Filename F:\ЗАГРУЗКИ\ Romantic Memories - Relax (Instrumental Hits Collection) (2009)\07. LagoonWest - Ocean Floor.wav
     Peak level 89.9 %
     Extraction speed 3.3 X
     Track quality 100.0 %
     Test CRC 9790549A
     Copy CRC 9790549A
     Accurately ripped (confidence 1)  [76C84B0C]  (AR v2)
     Copy OK
Track  8
     Filename F:\ЗАГРУЗКИ\ Romantic Memories - Relax (Instrumental Hits Collection) (2009)\08. Helen O'Hara - Elegy II.wav
     Peak level 58.8 %
     Extraction speed 4.0 X
     Track quality 100.0 %
     Test CRC 8B7E8195
     Copy CRC 8B7E8195
     Accurately ripped (confidence 1)  [E471574F]  (AR v2)
     Copy OK
Track  9
     Filename F:\ЗАГРУЗКИ\ Romantic Memories - Relax (Instrumental Hits Collection) (2009)\09. Medwyn Goodall - The Wildreness Within.wav
     Peak level 92.1 %
     Extraction speed 4.0 X
     Track quality 100.0 %
     Test CRC 32669F91
     Copy CRC 32669F91
     Accurately ripped (confidence 1)  [FCD47963]  (AR v2)
     Copy OK
Track 10
     Filename F:\ЗАГРУЗКИ\ Romantic Memories - Relax (Instrumental Hits Collection) (2009)\10. Kevin Kendle - Roses.wav
     Peak level 74.9 %
     Extraction speed 4.2 X
     Track quality 100.0 %
     Test CRC 144B72E8
     Copy CRC 144B72E8
     Accurately ripped (confidence 1)  [85C56DDF]  (AR v2)
     Copy OK
Track 11
     Filename F:\ЗАГРУЗКИ\ Romantic Memories - Relax (Instrumental Hits Collection) (2009)\11. Howard Green - Rainbow.wav
     Peak level 72.9 %
     Extraction speed 4.3 X
     Track quality 100.0 %
     Test CRC 2C02AD43
     Copy CRC 2C02AD43
     Accurately ripped (confidence 1)  [C4A283D2]  (AR v2)
     Copy OK
All tracks accurately ripped
No errors occurred
End of status report
---- CUETools DB Plugin V2.1.3
[CTDB TOCID: A3wrmq0eKkTuAalegLBtx5hA1T4-] disk not present in database, Submit result: A3wrmq0eKkTuAalegLBtx5hA1T4- has been uploaded
==== Log checksum 32E9BA6ABB1890C1071717E0FEE29EBAF071141F74000354109DB62366E00C66 ====
-

CD3 Интимное Настроение

Треклист
01. Frenesia - Emptiness (4:55)
02. Dr. Tikov - Love Mood (4:04)
03. J-Vol - Touch To Summer (5:33)
04. Tim. On - Perfect Love (5:08)
05. Sacral Reason - Perfection Girl (5:58)
06. Frenesia - City Eternal Dreams (6:14)
07. Mushroom Lab - Dream Traveller (6:29)
08. Buddysense - 67 Notes (5:34)
09. These (2) - New Jazz (6:06)
10. Vjik 72 - Something Down (4:56)
11. Tim. On - Sex In City (6:54)
12. Sonnie Mishki - Reggae Machine (5:10)
13. C.J. Catalizer - Oazis (6:12)
14. VS Vladovsky - Autumn Style (5:03)
Время звучания: 1:18:14

Лог создания рипа

Exact Audio Copy V1.0 beta 3 from 29. August 2011
EAC extraction logfile from 30. September 2014, 16:03
Various Artists / Romanric Memories - Интимное Настроение
Used drive  : ASUS    DRW-24B3ST   Adapter: 3  ID: 0
Read mode               : Secure
Utilize accurate stream : Yes
Defeat audio cache      : Yes
Make use of C2 pointers : No
Read offset correction                      : 6
Overread into Lead-In and Lead-Out          : No
Fill up missing offset samples with silence : Yes
Delete leading and trailing silent blocks   : No
Null samples used in CRC calculations       : Yes
Used interface                              : Native Win32 interface for Win NT & 2000
Gap handling                                : Appended to previous track
Used output format              : User Defined Encoder
Selected bitrate                : 896 kBit/s
Quality                         : High
Add ID3 tag                     : No
Command line compressor         : C:\Program Files (x86)\Exact Audio Copy\Flac\flac.exe
Additional command line options : -8 -V -T "ARTIST=%artist%" -T "TITLE=%title%" -T "ALBUM=%albumtitle%" -T "DATE=%year%" -T "TRACKNUMBER=%tracknr%" -T "GENRE=%genre%" -T "COMMENT=ripped by Oleandris" %source%
TOC of the extracted CD
     Track |   Start  |  Length  | Start sector | End sector
    ---------------------------------------------------------
        1  |  0:00.00 |  4:54.45 |         0    |    22094
        2  |  4:54.45 |  4:04.31 |     22095    |    40425
        3  |  8:59.01 |  5:32.47 |     40426    |    65372
        4  | 14:31.48 |  5:07.67 |     65373    |    88464
        5  | 19:39.40 |  5:57.41 |     88465    |   115280
        6  | 25:37.06 |  6:13.74 |    115281    |   143329
        7  | 31:51.05 |  6:28.60 |    143330    |   172489
        8  | 38:19.65 |  5:33.62 |    172490    |   197526
        9  | 43:53.52 |  6:06.09 |    197527    |   224985
       10  | 49:59.61 |  4:56.09 |    224986    |   247194
       11  | 54:55.70 |  6:54.09 |    247195    |   278253
       12  | 61:50.04 |  5:09.73 |    278254    |   301501
       13  | 67:00.02 |  6:11.47 |    301502    |   329373
       14  | 73:11.49 |  5:02.59 |    329374    |   352082
Track  1
     Filename F:\ЗАГРУЗКИ\ Romantic Memories - Интимное Настроение (Instrumental Hits Collection) (2005)\01. Frenesia - Emptiness.wav
     Pre-gap length  0:00:02.00
     Peak level 89.1 %
     Extraction speed 5.8 X
     Track quality 100.0 %
     Test CRC 806A624A
     Copy CRC 806A624A
     Accurately ripped (confidence 1)  [33A83A28]  (AR v2)
     Copy OK
Track  2
     Filename F:\ЗАГРУЗКИ\ Romantic Memories - Интимное Настроение (Instrumental Hits Collection) (2005)\02. Dr. Tikov - Love Mood.wav
     Pre-gap length  0:00:02.00
     Peak level 100.0 %
     Extraction speed 6.3 X
     Track quality 100.0 %
     Test CRC BA0E9F4A
     Copy CRC BA0E9F4A
     Accurately ripped (confidence 1)  [E81CC177]  (AR v2)
     Copy OK
Track  3
     Filename F:\ЗАГРУЗКИ\ Romantic Memories - Интимное Настроение (Instrumental Hits Collection) (2005)\03. J-Vol - Touch To Summer.wav
     Pre-gap length  0:00:02.00
     Peak level 100.0 %
     Extraction speed 6.2 X
     Track quality 99.9 %
     Test CRC BE8CD631
     Copy CRC BE8CD631
     Accurately ripped (confidence 1)  [BC66AEF7]  (AR v2)
     Copy OK
Track  4
     Filename F:\ЗАГРУЗКИ\ Romantic Memories - Интимное Настроение (Instrumental Hits Collection) (2005)\04. Tim. On - Perfect Love.wav
     Pre-gap length  0:00:02.00
     Peak level 100.0 %
     Extraction speed 7.5 X
     Track quality 100.0 %
     Test CRC 80194185
     Copy CRC 80194185
     Accurately ripped (confidence 1)  [149F6EB5]  (AR v2)
     Copy OK
Track  5
     Filename F:\ЗАГРУЗКИ\ Romantic Memories - Интимное Настроение (Instrumental Hits Collection) (2005)\05. Sacral Reason - Perfection Girl.wav
     Pre-gap length  0:00:01.72
     Peak level 90.0 %
     Extraction speed 7.2 X
     Track quality 99.9 %
     Test CRC 4B16D6CF
     Copy CRC 4B16D6CF
     Accurately ripped (confidence 1)  [4054366A]  (AR v2)
     Copy OK
Track  6
     Filename F:\ЗАГРУЗКИ\ Romantic Memories - Интимное Настроение (Instrumental Hits Collection) (2005)\06. Frenesia - City Eternal Dreams.wav
     Pre-gap length  0:00:02.00
     Peak level 100.0 %
     Extraction speed 8.8 X
     Track quality 100.0 %
     Test CRC 54C718BD
     Copy CRC 54C718BD
     Accurately ripped (confidence 1)  [8F504D01]  (AR v2)
     Copy OK
Track  7
     Filename F:\ЗАГРУЗКИ\ Romantic Memories - Интимное Настроение (Instrumental Hits Collection) (2005)\07. Mushroom Lab - Dream Traveller.wav
     Pre-gap length  0:00:02.00
     Peak level 100.0 %
     Extraction speed 9.3 X
     Track quality 100.0 %
     Test CRC 2349A816
     Copy CRC 2349A816
     Accurately ripped (confidence 1)  [904D5143]  (AR v2)
     Copy OK
Track  8
     Filename F:\ЗАГРУЗКИ\ Romantic Memories - Интимное Настроение (Instrumental Hits Collection) (2005)\08. Buddysense - 67 Notes.wav
     Pre-gap length  0:00:02.00
     Peak level 100.0 %
     Extraction speed 9.6 X
     Track quality 100.0 %
     Test CRC DE5F1553
     Copy CRC DE5F1553
     Accurately ripped (confidence 1)  [EDD2B9CB]  (AR v2)
     Copy OK
Track  9
     Filename F:\ЗАГРУЗКИ\ Romantic Memories - Интимное Настроение (Instrumental Hits Collection) (2005)\09. These (2) - New Jazz.wav
     Pre-gap length  0:00:02.00
     Peak level 100.0 %
     Extraction speed 10.1 X
     Track quality 100.0 %
     Test CRC 9CE07DBE
     Copy CRC 9CE07DBE
     Accurately ripped (confidence 1)  [D9E70916]  (AR v2)
     Copy OK
Track 10
     Filename F:\ЗАГРУЗКИ\ Romantic Memories - Интимное Настроение (Instrumental Hits Collection) (2005)\10. Vjik 72 - Something Down.wav
     Pre-gap length  0:00:02.00
     Peak level 100.0 %
     Extraction speed 8.9 X
     Track quality 99.9 %
     Test CRC 64CB8DA7
     Copy CRC 64CB8DA7
     Accurately ripped (confidence 1)  [57734FD3]  (AR v2)
     Copy OK
Track 11
     Filename F:\ЗАГРУЗКИ\ Romantic Memories - Интимное Настроение (Instrumental Hits Collection) (2005)\11. Tim. On - Sex In City.wav
     Pre-gap length  0:00:02.00
     Peak level 100.0 %
     Extraction speed 11.0 X
     Track quality 100.0 %
     Test CRC 261D884B
     Copy CRC 261D884B
     Accurately ripped (confidence 1)  [66425C60]  (AR v2)
     Copy OK
Track 12
     Filename F:\ЗАГРУЗКИ\ Romantic Memories - Интимное Настроение (Instrumental Hits Collection) (2005)\12. Sonnie Mishki - Reggae Machine.wav
     Pre-gap length  0:00:02.00
     Peak level 100.0 %
     Extraction speed 11.2 X
     Track quality 100.0 %
     Test CRC ED6C2AE9
     Copy CRC ED6C2AE9
     Accurately ripped (confidence 1)  [40F1AF22]  (AR v2)
     Copy OK
Track 13
     Filename F:\ЗАГРУЗКИ\ Romantic Memories - Интимное Настроение (Instrumental Hits Collection) (2005)\13. C.J. Catalizer - Oazis.wav
     Pre-gap length  0:00:02.00
     Peak level 100.0 %
     Extraction speed 11.7 X
     Track quality 100.0 %
     Test CRC ACF3F1E6
     Copy CRC ACF3F1E6
     Accurately ripped (confidence 1)  [C9344828]  (AR v2)
     Copy OK
Track 14
     Filename F:\ЗАГРУЗКИ\ Romantic Memories - Интимное Настроение (Instrumental Hits Collection) (2005)\14. VS Vladovsky - Autumn Style.wav
     Pre-gap length  0:00:01.74
     Peak level 100.0 %
     Extraction speed 10.0 X
     Track quality 99.9 %
     Test CRC 712BE7D6
     Copy CRC 712BE7D6
     Accurately ripped (confidence 1)  [E39B4856]  (AR v2)
     Copy OK
All tracks accurately ripped
No errors occurred
End of status report
---- CUETools DB Plugin V2.1.3
[CTDB TOCID: xKFY92Vir7U6Dp3hK.SYuYaKOKU-] disk not present in database, Submit result: xKFY92Vir7U6Dp3hK.SYuYaKOKU- has been uploaded
==== Log checksum 323FE7D63DC5AA7788D43BCA46689A452BF0C2870E08E93A69F93D708DF639C4 ====
-
Яндекс.Метрика
Рейтинг@Mail.ru