Боевик Джексон / Action Jackson (2014) WEB-DLRip-AVC | L2

 

Создавать темы 14-Мар-2015 22:59

Оригинальное название: Action Jackson
название: Боевик Джексон
Год: 2014
Жанр: Комедия, боевик, драма, мюзикл
Страна: Индия
Студия: Baba Films, Eros International
Продолжительность: 02:19:50
Перевод: Любительский двухголосый (den904 & DeadSno)
Субтитры: Русские (на песни)
Режиссёрр: Прабхудева
В ролях:
Аджай Девган, Сонакши Синха, Ями Гаутам, Кунаал Рой Капур, Аарон Брамфилд, Байрон Гибсон, Сунил Шетти, Роки Верма
Описание
…Он говорит лишь раз - Второй раз не повторяет. А если повторит, то враг уже не в состоянии будет это услышать. Один его удар сокрушит тысячу противников, а одно его имя заставит дрожать землю под ногами бандитов и трепетать их трусливые сердца. И в делах сердечных ему равных нет. Он оставит на дороге самого Ромео. Под его чарами не устоит даже жестокая и хладнокровная сестричка отпетого бандита. Но только чем это обернётся...
Качество: WEB-DLRip (AVC)
Видео: MPEG-4 AVC, 2155 Кбит/с, 1024x434
Аудио: AC3, 2 ch, 192 Кбит/с

Mediainfo:

General
Unique ID                                : 251069869941610484699680481207071796850 (0xBCE24C4E038659F595AABD580E63EE72)
Complete name                            : C:Action.Jackson.2014.WEB-DLRip.AVC.ExKinoRay.mkv
Format                                   : Matroska
Format version                           : Version 4 / Version 2
File size                                : 2.29 GiB
Duration                                 : 2h 19mn
Overall bit rate                         : 2 349 Kbps
Movie name                               : Action Jackson 2014 from ExKinoRay
Encoded date                             : UTC 2015-03-13 12:26:44
Writing application                      : mkvmerge v6.6.0 ('The Edge Of The In Between') built on Dec  1 2013 17:55:00
Writing library                          : libebml v1.3.0 + libmatroska v1.4.1
Video
ID                                       : 1
Format                                   : AVC
Format/Info                              : Advanced Video Codec
Format profile                           : [email protected]
Format settings, CABAC                   : Yes
Format settings, ReFrames                : 9 frames
Codec ID                                 : V_MPEG4/ISO/AVC
Duration                                 : 2h 19mn
Bit rate                                 : 2 155 Kbps
Width                                    : 1 024 pixels
Height                                   : 434 pixels
Display aspect ratio                     : 2.35:1
Frame rate mode                          : Constant
Frame rate                               : 25.000 fps
Color space                              : YUV
Chroma subsampling                       : 4:2:0
Bit depth                                : 8 bits
Scan type                                : Progressive
Bits/(Pixel*Frame)                       : 0.194
Stream size                              : 2.06 GiB (90%)
Title                                    : Enigma-Vladislav71
Writing library                          : x264 core 133 r2334 a3ac64b
Encoding settings                        : cabac=1 / ref=9 / deblock=1:-2:-2 / analyse=0x3:0x113 / me=umh / subme=10 / psy=1 / psy_rd=1.00:0.15 / mixed_ref=1 / me_range=32 / chroma_me=1 / trellis=2 / 8x8dct=1 / cqm=0 / deadzone=21,11 / fast_pskip=0 / chroma_qp_offset=-3 / threads=12 / lookahead_threads=2 / sliced_threads=0 / nr=0 / decimate=0 / interlaced=0 / bluray_compat=0 / constrained_intra=0 / bframes=9 / b_pyramid=2 / b_adapt=2 / b_bias=0 / direct=3 / weightb=1 / open_gop=0 / weightp=2 / keyint=250 / keyint_min=25 / scenecut=40 / intra_refresh=0 / rc=2pass / mbtree=0 / bitrate=2155 / ratetol=1.0 / qcomp=0.60 / qpmin=0 / qpmax=51 / qpstep=4 / cplxblur=20.0 / qblur=0.5 / ip_ratio=1.40 / pb_ratio=1.30 / aq=1:1.00
Language                                 : English
Default                                  : Yes
Forced                                   : No
Color primaries                          : BT.709
Transfer characteristics                 : BT.709
Matrix coefficients                      : BT.709
Audio
ID                                       : 2
Format                                   : AC-3
Format/Info                              : Audio Coding 3
Mode extension                           : CM (complete main)
Format settings, Endianness              : Big
Codec ID                                 : A_AC3
Duration                                 : 2h 19mn
Bit rate mode                            : Constant
Bit rate                                 : 192 Kbps
Channel(s)                               : 2 channels
Channel positions                        : Front: L R
Sampling rate                            : 48.0 KHz
Bit depth                                : 16 bits
Compression mode                         : Lossy
Stream size                              : 192 MiB (8%)
Title                                    : den904 & DeadSno
Language                                 : Russian
Default                                  : Yes
Forced                                   : No
Text
ID                                       : 3
Format                                   : UTF-8
Codec ID                                 : S_TEXT/UTF8
Codec ID/Info                            : UTF-8 Plain Text
Title                                    : songs
Default                                  : Yes
Forced                                   : No

Скриншоты:

Яндекс.Метрика
Рейтинг@Mail.ru