Наша Вселенная / Our Universe (2013)[документальный, научно-популярный BDRip 720p]

 

Создавать темы 27-Ноя-2013 17:48

Информация о фильме
Название: Наша Вселенная
Оригинальное название: Our Universe
Год выхода: 2013
Жанр: документальный, научно-популярный
Режиссер: Калле Макс Хофманн
В ролях: Манфред Леманн, Глен МакКреди
О фильме:
Звездное небо было объектом внимания людей с доисторических времен. И неудивительно, ведь именно в глубинах вселенной зародилась жизнь. В наши дни, благодаря современным технологиям, самые невероятные и удивительные секреты вселенной стали доступны для понимания. Космические корабли и роботизированные зонды исследуют, сканируют и фотографируют миллиарды отдаленных планет. С помощью уникальной передовой технологии «Наша вселенная 3D» даст вам возможность насладиться сногсшибательными видами и разгадать необыкновенные звездные феномены, не выходя из дома.
Страна: США
Студия: Universal Pictures
Продолжительность: 00:51:33
Перевод: Дублированный
Файл
Кодек: MKV. H.264
Качество: BDRip 720p
Видео: h264 (High), yuv420p, 1280x720 [PAR 1:1 DAR 16:9], 4448 Kbps, 23.98 fps, 23.98 tbr, 1k tbn, 47.95 tbc
Звук: AC3, 48000 Hz, stereo, s16, 224 kb/s

MediaInfo

General
Unique ID : 297043719471219574271108921276757945266 (0xDF788A16EAA11F108CBB49A9AA3FABB2)
Complete name : /mnt/disk/Video/Our.Universe.2013.Rus.BDRip.720p.mkv
Format : Matroska
File size : 1.72 GiB
Duration : 51mn 33s
Overall bit rate : 4 767 Kbps
Encoded date : UTC 2013-11-27 09:13:06
Writing application : mkvmerge v4.8.0 ('I Got The...') сборка от Aug 22 2011 13:16:28
Writing library : libebml v1.2.0 + libmatroska v1.1.0
Video
ID : 1
Format : AVC
Format/Info : Advanced Video Codec
Format profile : [email protected]
Format settings, CABAC : Yes
Format settings, ReFrames : 5 frames
Codec ID : V_MPEG4/ISO/AVC
Duration : 51mn 33s
Bit rate : 4 448 Kbps
Width : 1 280 pixels
Height : 720 pixels
Display aspect ratio : 16:9
Frame rate : 23.976 fps
Color space : YUV
Chroma subsampling : 4:2:0
Bit depth : 8 bits
Scan type : Progressive
Bits/(Pixel*Frame) : 0.201
Stream size : 1.60 GiB (93%)
Title : Наша Вселенная / Our Universe (2013) BDRip 720p
Audio
ID : 2
Format : AC-3
Format/Info : Audio Coding 3
Mode extension : CM (complete main)
Codec ID : A_AC3
Duration : 51mn 33s
Bit rate mode : Constant
Bit rate : 224 Kbps
Channel(s) : 2 channels
Channel positions : Front: L R
Sampling rate : 48.0 KHz
Bit depth : 16 bits
Compression mode : Lossy
Stream size : 82.6 MiB (5%)
Title : Русский
Language : Russian

Скриншоты

Яндекс.Метрика
Рейтинг@Mail.ru