Феникс / Phoenix (Кристиан Петцольд / Christian Petzold) [2014 г., драма, история, ..., HDRip] DVO [Студия Пиратского дубляжа.]

 

Создавать темы 14-Апр-2015 06:24

-Феникс / Phoenix-- Производство: Германия, Польша, ARTE LLC
Год выпуска: 2014 г.
Жанр: драма, история, ...
Продолжительность: 01:38:00
Мировая премьера: 5 сентября 2014, ...
Российская премьера: 2 апреля 2015, «Cinema Prestige»
Перевод: Любительский (двухголосый, закадровый) [Студия Пиратского дубляжа.]
Режиссер: Кристиан Петцольд / Christian Petzold-В ролях: Нина Хосс, Рональд Церфельд, Нина Кунцендорф, Михаэль Мертенс, Имоген Когге, Керстен Блок, Уве Пройсс, Ева Бэй, Джефф Баррелл, София Эксс-Описание: Нелли Ленц, жертва Холокоста, которой удалось выжить в концлагере. Она ранена, у неё сильно искалечено лицо. Сотрудница Еврейского агентства Лене Винтер помогает Нелли добраться до Берлина, где ей сделали пластическую операцию. Поправившись после операции, Нелли начинает искать своего мужа, Йоханнса. Когда она наконец нашла его, Йоханнес не узнал свою жену, которую считает погибшей. Тем не менее, он признает, что эта незнакомая ему женщина похожа на его «покойную» жену. И тогда Йоханнес делает деловое предложение Нелли — она должна будет изображать его жену, чтобы получить состояние, которое ей досталось от семьи. Нелли соглашается…-Качество видео: HDRip
Контейнер: AVI
Видео кодек: XviD
Аудио кодек: AC3
Видео: 720x304 (2.37:1), 24 fps, XviD build 50 ~1633 kbps avg, 0.31 bit/pixel
Аудио: 48 kHz, AC3 Dolby Digital, 3/2 (L,C,R,l,r) + LFE ch, ~384 kbps
Cубтитры: отсутствуют

Media Info

General
Complete name : W:\Fen1x.2014.P.HDRip.1400MB.avi
Format : AVI
Format/Info : Audio Video Interleave
File size : 1.39 GiB
Duration : 1h 38mn
Overall bit rate : 2 027 Kbps
Writing application : VirtualDubMod 1.5.10.2 (build 2540/release)
Writing library : VirtualDubMod build 2540/release
Video
ID : 0
Format : MPEG-4 Visual
Format profile : Advanced [email protected]
Format settings, BVOP : Yes
Format settings, QPel : No
Format settings, GMC : No warppoints
Format settings, Matrix : Default (MPEG)
Codec ID : XVID
Codec ID/Hint : XviD
Duration : 1h 38mn
Bit rate : 1 634 Kbps
Width : 720 pixels
Height : 304 pixels
Display aspect ratio : 2.35:1
Frame rate : 24.000 fps
Color space : YUV
Chroma subsampling : 4:2:0
Bit depth : 8 bits
Scan type : Progressive
Bits/(Pixel*Frame) : 0.311
Stream size : 1.12 GiB (81%)
Writing library : XviD 1.2.1 (UTC 2008-12-04)
Audio
ID : 1
Format : AC-3
Format/Info : Audio Coding 3
Mode extension : CM (complete main)
Codec ID : 2000
Duration : 1h 38mn
Bit rate mode : Constant
Bit rate : 384 Kbps
Channel(s) : 6 channels
Channel positions : Front: L C R, Side: L R, LFE
Sampling rate : 48.0 KHz
Bit depth : 16 bits
Stream size : 269 MiB (19%)
Alignment : Split accross interleaves
Interleave, duration : 42 ms (1.00 video frame)
Interleave, preload duration : 500 ms

Скриншоты

Яндекс.Метрика
Рейтинг@Mail.ru