Книга жизни / The Book of Life (2014) BDRip 1080p | Лицензия

 

Создавать темы 18-Апр-2015 21:50

Книга жизни / The Book of LifeГод выхода: 2014
Жанр: мультфильм, фэнтези, мелодрама
Режиссер: Хорхе Р. Гутьеррес
В ролях:
Диего Луна, Зои Салдана, Ченнинг Татум, Рон Перлман, Кристина Эпплгейт, Айс Кьюб, Кейт дель Кастильо, Гектор Элизондо, Дэнни Трехо, Карлос Аласраки
О фильме:
В мультфильме описывается романтическая история любви на фоне празднования Дня мертвых в Мексике.
Страна: США
Студия: Twentieth Century Fox
Продолжительность: 01:35:24
Перевод: Профессиональный (дублированный) Blu-ray EUR
Файл
Формат: Matroska
Видео: 1920x804 at 23.976 fps, [email protected], ~12.0 Mbps avg
Aудио#1: Russian: 48 kHz, DTS, 3/2 (L,C,R,l,r) + LFE ch, ~768.00 kbps avg |Дубляж, Blu-ray EUR|
Aудио#2: Ukrainian: 48 kHz, AC3, 3/2 (L,C,R,l,r) + LFE ch, ~448.00 kbps avg |Дубляж, Blu-ray EUR|
Аудио#3: English: 48 kHz, DTS, 3/2 (L,C,R,l,r) + LFE ch, ~1536.00 kbps avg
Aудио#4: English: 48 kHz, AC3, 2/0 (L,R) ch, ~224.00 kbps avg |Audio Commentary by Director Jorge R. Gutierrez|
Субтитры: Russian (Forced, iTunes), Russian (iTunes), Ukrainian (iTunes), English (Forced), English, English (SDH)

MI

General
Unique ID : 228083963598553422821926671776530085810 (0xAB975F9FDA1DE2FCBBA3F7AA77E8B7B2)
Complete name : The.Book.of.Life.2014.1080p.mkv
Format : Matroska
Format version : Version 2
File size : 10.1 GiB
Duration : 1h 35mn
Overall bit rate : 15.1 Mbps
Movie name : The Book of Life (2014) - Release for HDCLUB
Encoded date : UTC 2015-04-17 17:55:34
Writing application : mkvmerge v3.4.0 ('Rapunzel') built on May 15 2010 09:38:20
Writing library : libebml v0.8.0 + libmatroska v0.9.0
Video
ID : 1
Format : AVC
Format/Info : Advanced Video Codec
Format profile : [email protected]
Format settings, CABAC : Yes
Format settings, ReFrames : 5 frames
Codec ID : V_MPEG4/ISO/AVC
Duration : 1h 35mn
Bit rate : 11.9 Mbps
Width : 1 920 pixels
Height : 804 pixels
Display aspect ratio : 2.40:1
Frame rate mode : Constant
Frame rate : 23.976 fps
Color space : YUV
Chroma subsampling : 4:2:0
Bit depth : 8 bits
Scan type : Progressive
Bits/(Pixel*Frame) : 0.321
Stream size : 7.92 GiB (79%)
Title : The Book of Life (2014) - Release for HDCLUB
Writing library : x264 core 142 r2491kMod 24e4fed
Encoding settings : cabac=1 / ref=5 / deblock=1:-3:-3 / analyse=0x3:0x133 / me=umh / subme=10 / psy=1 / fade_compensate=0.00 / psy_rd=0.62:0.00 / mixed_ref=1 / me_range=24 / chroma_me=1 / trellis=2 / 8x8dct=1 / cqm=0 / deadzone=21,11 / fast_pskip=0 / chroma_qp_offset=-2 / threads=12 / lookahead_threads=2 / sliced_threads=0 / nr=0 / decimate=0 / interlaced=0 / bluray_compat=0 / constrained_intra=0 / fgo=0 / bframes=9 / b_pyramid=2 / b_adapt=2 / b_bias=0 / direct=3 / weightb=1 / open_gop=0 / weightp=2 / keyint=250 / keyint_min=23 / scenecut=40 / intra_refresh=0 / rc=crf / mbtree=0 / crf=16.2000 / qcomp=0.70 / qpmin=0 / qpmax=69 / qpstep=4 / ip_ratio=1.30 / pb_ratio=1.20 / aq=1:1.10
Language : English
Default : Yes
Forced : No
Audio #1
ID : 2
Format : DTS
Format/Info : Digital Theater Systems
Mode : 16
Format settings, Endianness : Big
Codec ID : A_DTS
Duration : 1h 35mn
Bit rate mode : Constant
Bit rate : 768 Kbps
Channel(s) : 6 channels
Channel positions : Front: L C R, Side: L R, LFE
Sampling rate : 48.0 KHz
Bit depth : 24 bits
Compression mode : Lossy
Stream size : 524 MiB (5%)
Title : DTS 5.1 @ 768 kbps - DUB, Blu-ray EUR
Language : Russian
Default : Yes
Forced : No
Audio #2
ID : 3
Format : AC-3
Format/Info : Audio Coding 3
Mode extension : CM (complete main)
Format settings, Endianness : Big
Codec ID : A_AC3
Duration : 1h 35mn
Bit rate mode : Constant
Bit rate : 448 Kbps
Channel(s) : 6 channels
Channel positions : Front: L C R, Side: L R, LFE
Sampling rate : 48.0 KHz
Bit depth : 16 bits
Compression mode : Lossy
Stream size : 306 MiB (3%)
Title : AC3 5.1 @ 448 kbps - DUB, Blu-ray EUR
Language : Ukrainian
Default : No
Forced : No
Audio #3
ID : 4
Format : DTS
Format/Info : Digital Theater Systems
Mode : 16
Format settings, Endianness : Big
Codec ID : A_DTS
Duration : 1h 35mn
Bit rate mode : Constant
Bit rate : 1 509 Kbps
Channel(s) : 6 channels
Channel positions : Front: L C R, Side: L R, LFE
Sampling rate : 48.0 KHz
Bit depth : 24 bits
Compression mode : Lossy
Delay relative to video : 11ms
Stream size : 1.01 GiB (10%)
Title : DTS 5.1 @ 1536 kbps
Language : English
Default : No
Forced : No
Audio #4
ID : 5
Format : AC-3
Format/Info : Audio Coding 3
Mode extension : CM (complete main)
Format settings, Endianness : Big
Codec ID : A_AC3
Duration : 1h 35mn
Bit rate mode : Constant
Bit rate : 192 Kbps
Channel(s) : 2 channels
Channel positions : Front: L R
Sampling rate : 48.0 KHz
Bit depth : 16 bits
Compression mode : Lossy
Stream size : 131 MiB (1%)
Title : AC3 2.0 @ 224 kbps - Audio Commentary by Director Jorge R. Gutierrez
Language : English
Default : No
Forced : No
Text #1
ID : 6
Format : UTF-8
Codec ID : S_TEXT/UTF8
Codec ID/Info : UTF-8 Plain Text
Title : Forced, iTunes
Language : Russian
Default : Yes
Forced : No
Text #2
ID : 7
Format : UTF-8
Codec ID : S_TEXT/UTF8
Codec ID/Info : UTF-8 Plain Text
Title : iTunes
Language : Russian
Default : No
Forced : No
Text #3
ID : 8
Format : UTF-8
Codec ID : S_TEXT/UTF8
Codec ID/Info : UTF-8 Plain Text
Title : iTunes
Language : Ukrainian
Default : No
Forced : No
Text #4
ID : 9
Format : UTF-8
Codec ID : S_TEXT/UTF8
Codec ID/Info : UTF-8 Plain Text
Title : Forced
Language : English
Default : No
Forced : No
Text #5
ID : 10
Format : UTF-8
Codec ID : S_TEXT/UTF8
Codec ID/Info : UTF-8 Plain Text
Language : English
Default : No
Forced : No
Text #6
ID : 11
Format : UTF-8
Codec ID : S_TEXT/UTF8
Codec ID/Info : UTF-8 Plain Text
Title : SDH
Language : English
Default : No
Forced : No
Menu
00:00:00.000 : en:00:00:00.000
00:02:58.053 : en:00:02:58.053
00:05:39.631 : en:00:05:39.631
00:08:35.014 : en:00:08:35.014
00:12:08.478 : en:00:12:08.478
00:15:07.698 : en:00:15:07.698
00:19:24.246 : en:00:19:24.246
00:22:20.089 : en:00:22:20.089
00:26:08.150 : en:00:26:08.150
00:28:59.571 : en:00:28:59.571
00:33:02.147 : en:00:33:02.147
00:37:25.952 : en:00:37:25.952
00:41:07.090 : en:00:41:07.090
00:43:14.634 : en:00:43:14.634
00:47:02.486 : en:00:47:02.486
00:50:53.050 : en:00:50:53.050
00:53:13.232 : en:00:53:13.232
00:56:30.220 : en:00:56:30.220
01:00:16.279 : en:01:00:16.279
01:03:57.792 : en:01:03:57.792
01:06:48.379 : en:01:06:48.379
01:09:09.896 : en:01:09:09.896
01:11:52.016 : en:01:11:52.016
01:15:53.215 : en:01:15:53.215
01:18:52.770 : en:01:18:52.770
01:21:13.410 : en:01:21:13.410
01:23:33.842 : en:01:23:33.842
01:27:11.893 : en:01:27:11.893

Скриншоты:

Яндекс.Метрика
Рейтинг@Mail.ru