(Punk-Rock) [CD] Красная Плесень - Муха-Ссыкатуха & Бульбулятор - 2004, FLAC (image+.cue), lossless

 

Создавать темы 01-Май-2015 20:32

Красная Плесень
Муха-Ссыкатуха & Бульбулятор
Жанр: Punk-Rock
Носитель: CD
Страна-производитель диска (релиза): Russia
Год издания: 2004
Издатель (лейбл): Master Sound Ltd
Номер по каталогу: MS CD 554 / 04
Страна исполнителя (группы): Россия / Украина
Аудиокодек: FLAC (*.flac)
Тип рипа: image+.cue
Битрейт аудио: lossless
Продолжительность: 00:52:42
Источник (релизер): My Collection
Наличие сканов в содержимом раздачи: да

Треклист:

Муха-Ссыкатуха (00:25:38)
01. Вступление (01:25)
02. Ария мастурбирующей Мухи (03:23)
03. Ария обсаженного Паука (02:31)
04. Ария Майского Жука (03:29)
05. Ария попсующего Комарика (03:13)
06. Ария трахопиздящего Таракана (03:23)
07. Победа цензура!!! (03:42)
08. Ария Айболита (02:44)
09. Ария Мухи (01:48)
Бульбулятор (00:27:08)
01. Бульбулятор (02:46)
02. За рулем Пызда (02:22)
03. Апельсиновый понос (01:37)
04. Рок-н-ролл (remix) (03:11)
05. Гимн панков (02:14)
06. Баллада (03:00)
07. Про Конго (00:23)
08. Дребедень (02:44)
09. Чтобы девушки потели (00:05)
10. Невеста Фюррера (02:56)
11. Смерть фашизму (03:46)
12. Мне подруга не... (02:04)

Лог создания рипа

Exact Audio Copy V1.0 beta 3 from 29. August 2011
Отчёт EAC об извлечении, выполненном 28. декабря 2014, 9:53
Муха-Ссыкатуха / Бульбулятор / Красная Плесень
Дисковод: ATAPI   iHAS124   D   Adapter: 2  ID: 1
Режим чтения                 : ДостоверностьИспользование точного потока : ДаОтключение кэша аудио        : ДаИспользование указателей C2  : Нет
Коррекция смещения при чтении                     : 6Способность читать области Lead-in и Lead-out     : НетЗаполнение пропущенных сэмплов тишиной            : ДаУдаление блоков с тишиной в начале и конце        : НетПри вычислениях CRC использовались нулевые сэмплы : ДаИнтерфейс                                         : Встроенный Win32-интерфейс для Win NT/2000
Выходной формат          : Пользовательский кодировщикВыбранный битрейт        : 768 kBit/sКачество                 : ВысокийДобавление ID3-тега      : НетУтилита сжатия           : C:\Program Files (x86)\Exact Audio Copy\FLAC\FLAC.EXEДополнительные параметры : -6 -V -T "ARTIST=%artist%" -T "TITLE=%title%" -T "ALBUM=%albumtitle%" -T "DATE=%year%" -T "TRACKNUMBER=%tracknr%" -T "GENRE=%genre%" -T "COMMENT=%comment%" -T "BAND=%albuminterpret%" -T "ALBUMARTIST=%albuminterpret%" -T "COMPOSER=%composer%" %haslyrics%--tag-from-file=LYRICS="%lyricsfile%"%haslyrics% -T "DISCNUMBER=%cdnumber%" -T "TOTALDISCS=%totalcds%" -T "TOTALTRACKS=%numtracks%" %hascover%--picture="%coverfile%"%hascover% %source% -o %dest%
TOC извлечённого CD
Трек |   Старт  | Длительность | Начальный сектор | Конечный сектор    ---------------------------------------------------------------------       1  |  0:00.00 |    1:24.41   |           0      |       6340       2  |  1:24.41 |    3:22.60   |        6341      |      21550       3  |  4:47.26 |    2:31.01   |       21551      |      32876       4  |  7:18.27 |    3:28.39   |       32877      |      48515       5  | 10:46.66 |    3:12.40   |       48516      |      62955       6  | 13:59.31 |    3:23.19   |       62956      |      78199       7  | 17:22.50 |    3:42.16   |       78200      |      94865       8  | 21:04.66 |    2:43.38   |       94866      |     107128       9  | 23:48.29 |    1:48.04   |      107129      |     115232      10  | 25:36.33 |    2:46.21   |      115233      |     127703      11  | 28:22.54 |    2:21.40   |      127704      |     138318      12  | 30:44.19 |    1:37.07   |      138319      |     145600      13  | 32:21.26 |    3:10.22   |      145601      |     159872      14  | 35:31.48 |    2:14.19   |      159873      |     169941      15  | 37:45.67 |    2:59.70   |      169942      |     183436      16  | 40:45.62 |    0:22.58   |      183437      |     185144      17  | 41:08.45 |    2:44.03   |      185145      |     197447      18  | 43:52.48 |    0:05.12   |      197448      |     197834      19  | 43:57.60 |    2:55.31   |      197835      |     210990      20  | 46:53.16 |    3:45.22   |      210991      |     227887      21  | 50:38.38 |    2:04.23   |      227888      |     237210      22  | 55:14.61 |    0:23.56   |      248611      |     250391
Характеристики диапазона извлечения и сообщения об ошибках
Выбранный диапазон
Имя файла C:\Users\Temandroid\Desktop\Муха-Ссыкатуха , Бульбулятор - Красная Плесень.wav
Пиковый уровень 98.8 %     Скорость извлечения 3.2 X     Качество диапазона 100.0 %     CRC теста 0C48EB36     CRC копии 0C48EB36     Копирование... OK
Ошибок не произошло
Конец отчёта
==== Контрольная сумма отчёта 77420CF8CA6B0F53945527BB018D82E88C3FAF03996A39E36C27D4B6F6209444 ====

Содержание индексной карты (.CUE)

REM GENRE "Punk Rock"REM DATE 2004REM DISCID 2B0D0A16REM COMMENT "ExactAudioCopy v1.0b3"PERFORMER "Муха-Ссыкатуха / Бульбулятор"TITLE "Красная Плесень"FILE "Муха-Ссыкатуха , Бульбулятор - Красная Плесень.flac" WAVE  TRACK 01 AUDIO    TITLE "Вступление"    PERFORMER "Муха-Ссыкатуха / Бульбулятор"    INDEX 01 00:00:00  TRACK 02 AUDIO    TITLE "Ария мастурбирующей Мухи"    PERFORMER "Муха-Ссыкатуха / Бульбулятор"    INDEX 01 01:24:41  TRACK 03 AUDIO    TITLE "Ария обсажен-н-ного Паука"    PERFORMER "Муха-Ссыкатуха / Бульбулятор"    INDEX 01 04:47:26  TRACK 04 AUDIO    TITLE "Ария майского Жука"    PERFORMER "Муха-Ссыкатуха / Бульбулятор"    INDEX 01 07:18:27  TRACK 05 AUDIO    TITLE "Ария попсующего Комарика"    PERFORMER "Муха-Ссыкатуха / Бульбулятор"    INDEX 01 10:46:66  TRACK 06 AUDIO    TITLE "Ария трахопи...дящего Таракана"    PERFORMER "Муха-Ссыкатуха / Бульбулятор"    INDEX 01 13:59:31  TRACK 07 AUDIO    TITLE "Победа, Бл...!!!"    PERFORMER "Муха-Ссыкатуха / Бульбулятор"    INDEX 01 17:22:50  TRACK 08 AUDIO    TITLE "Ария Айболита"    PERFORMER "Муха-Ссыкатуха / Бульбулятор"    INDEX 01 21:04:66  TRACK 09 AUDIO    TITLE "Ария Мухи"    PERFORMER "Муха-Ссыкатуха / Бульбулятор"    INDEX 01 23:48:29  TRACK 10 AUDIO    TITLE "Бульбулятор"    PERFORMER "Муха-Ссыкатуха / Бульбулятор"    INDEX 01 25:36:33  TRACK 11 AUDIO    TITLE "За рулем Пы...да"    PERFORMER "Муха-Ссыкатуха / Бульбулятор"    INDEX 01 28:22:54  TRACK 12 AUDIO    TITLE "Апельсиновый понос"    PERFORMER "Муха-Ссыкатуха / Бульбулятор"    INDEX 01 30:44:19  TRACK 13 AUDIO    TITLE "Рок-н-ролл (Ремикс)"    PERFORMER "Муха-Ссыкатуха / Бульбулятор"    INDEX 01 32:21:26  TRACK 14 AUDIO    TITLE "Гимн панков"    PERFORMER "Муха-Ссыкатуха / Бульбулятор"    INDEX 01 35:31:48  TRACK 15 AUDIO    TITLE "Баллада"    PERFORMER "Муха-Ссыкатуха / Бульбулятор"    INDEX 01 37:45:67  TRACK 16 AUDIO    TITLE "Про Конго"    PERFORMER "Муха-Ссыкатуха / Бульбулятор"    INDEX 01 40:45:62  TRACK 17 AUDIO    TITLE "Дребедень"    PERFORMER "Муха-Ссыкатуха / Бульбулятор"    INDEX 01 41:08:45  TRACK 18 AUDIO    TITLE "Чтобы девушки потели"    PERFORMER "Муха-Ссыкатуха / Бульбулятор"    INDEX 01 43:52:48  TRACK 19 AUDIO    TITLE "Невеста фюрера"    PERFORMER "Муха-Ссыкатуха / Бульбулятор"    INDEX 01 43:57:60  TRACK 20 AUDIO    TITLE "Смерть фашизму"    PERFORMER "Муха-Ссыкатуха / Бульбулятор"    INDEX 01 46:53:16  TRACK 21 AUDIO    TITLE "Мне подруга не..."    PERFORMER "Муха-Ссыкатуха / Бульбулятор"    INDEX 01 50:38:38
Яндекс.Метрика
Рейтинг@Mail.ru