[ Сегодня на трекере фрилич! Идет свободное скачивание без начисления Download ]

Artik pres. Asti - Сладкий сон (2013) Master 1080p | 60 fps

 

Создавать темы 01-Май-2015 22:13

Artik pres. Asti - Сладкий сон (2013) Master 1080p | 60 fps- Информация о Клипе:
Исполнители:Artik pres. Asti
Название:Сладкий сон
Год выпуска: 2013 г.
Жанр: Поп
Страна: Россия
Продолжительность: 03.19мин
Файл:
Формат видео: MKV
Качество видео: Master 1080p | 60 fps
Видео кодек: H.264
Аудио кодек: AC3
Видео: 1920x998 | 59.940 fps | 28,5 Мбит/сек
Аудио: AC3 | 2 channels | 48 kHz |384 Кбит/сек
Автор Рипа: Kamikkadze

MediaInfo

Общее
Уникальный идентификатор : 238029273644834916560132050340198311501 (0xB312C5446CCECAECB427B342D53D664D)
Полное имя : C:\Users\Kamikkadze\Desktop\Клипы\на 60\Artik pres. Asti - Сладкий сон.mkv
Формат : Matroska
Версия формата : Version 4 / Version 2
Размер файла : 688 Мбайт
Продолжительность : 3 м. 19 с.
Общий поток : 29,0 Мбит/сек
Название фильма : Artik pres. Asti - Сладкий сон (Rip By Kamikkadze)
Дата кодирования : UTC 2015-05-01 17:18:26
Программа кодирования : mkvmerge v7.8.0 ('River Man') 64bit built on Mar 27 2015 16:31:37
Библиотека кодирования : libebml v1.3.1 + libmatroska v1.4.2
DURATION : 00:03:19.072000000
NUMBER_OF_FRAMES : 6221
NUMBER_OF_BYTES : 9555456
_STATISTICS_WRITING_APP : mkvmerge v7.8.0 ('River Man') 64bit built on Mar 27 2015 16:31:37
_STATISTICS_WRITING_DATE_UTC : 2015-05-01 17:18:26
_STATISTICS_TAGS : BPS DURATION NUMBER_OF_FRAMES NUMBER_OF_BYTES
Видео
Идентификатор : 1
Формат : AVC
Формат/Информация : Advanced Video Codec
Профиль формата : [email protected]
Параметр CABAC формата : Да
Параметр ReFrames формата : 8 кадров
Идентификатор кодека : V_MPEG4/ISO/AVC
Продолжительность : 3 м. 19 с.
Битрейт : 28,5 Мбит/сек
Ширина : 1920 пикселей
Высота : 998 пикселей
Соотношение сторон : 1,924
Режим частоты кадров : Постоянный
Частота кадров : 59,880 кадров/сек
Частота кадров в оригинале : 59,940 кадров/сек
Цветовое пространство : YUV
Субдискретизация насыщенности : 4:2:0
Битовая глубина : 8 бит
Тип развёртки : Прогрессивная
Бит/(Пиксели*Кадры) : 0.249
Размер потока : 666 Мбайт (97%)
Заголовок : Rip By Kamikkadze
Библиотека кодирования : x264 core 130 r2273 b3065e6
Настройки программы : cabac=1 / ref=8 / deblock=1:-1:-1 / analyse=0x3:0x133 / me=umh / subme=7 / psy=1 / psy_rd=1.00:0.10 / mixed_ref=1 / me_range=16 / chroma_me=1 / trellis=2 / 8x8dct=1 / cqm=0 / deadzone=21,11 / fast_pskip=0 / chroma_qp_offset=-3 / threads=6 / lookahead_threads=1 / sliced_threads=0 / nr=0 / decimate=1 / interlaced=0 / bluray_compat=0 / constrained_intra=0 / bframes=3 / b_pyramid=2 / b_adapt=2 / b_bias=0 / direct=3 / weightb=1 / open_gop=0 / weightp=2 / keyint=250 / keyint_min=25 / scenecut=40 / intra_refresh=0 / rc_lookahead=50 / rc=2pass / mbtree=1 / bitrate=28550 / ratetol=1.0 / qcomp=0.60 / qpmin=0 / qpmax=69 / qpstep=4 / cplxblur=20.0 / qblur=0.5 / ip_ratio=1.40 / aq=1:1.00
Язык : Russian
Default : Да
Forced : Нет
Аудио
Идентификатор : 2
Формат : AC-3
Формат/Информация : Audio Coding 3
Расширение режима : CM (complete main)
Параметр Endianness формата : Big
Идентификатор кодека : A_AC3
Продолжительность : 3 м. 19 с.
Вид битрейта : Постоянный
Битрейт : 384 Кбит/сек
Каналы : 2 канала
Расположение каналов : Front: L R
Частота : 48,0 КГц
Битовая глубина : 16 бит
Метод сжатия : С потерями
Размер потока : 9,11 Мбайт (1%)
Заголовок : Rip By Kamikkadze
Язык : Russian
Default : Да
Forced : Нет

Скриншоты:

Яндекс.Метрика
Рейтинг@Mail.ru