Байки из склепа: Кровавый бордель / Bordello of Blood (1996) BDRip 720p | 60fps

 

Создавать темы 03-Май-2015 14:53

Байки из склепа: Кровавый бордель / Bordello of Blood (1996) BDRip 720p | 60fps«....»- Название: Байки из склепа: Кровавый бордель
Оригинальное название: Bordello of Blood
Год выхода: 1996
Жанр: Ужасы, фэнтези, комедия
Режиссер: Гилберт Адлер
Продюсер: Гилберт Адлер, Александр Б. Коллетт, Дэн Краччиоло
В ролях: Джон Кассир, Деннис Миллер, Эрика Элениак, Энджи Эверхарт, Крис Сарандон, Кори Фельдман, Обри Моррис, Фил Фондакаро, Уильям Сэдлер, Киара Хантер
Описание фильма:
Мадам Лилит и ее сексапильные помощницы содержат очень необычный бордель на окраине города. Они берут за услуги не только деньги, но и высасывают из клиентов кровь до последней капли.
Хитроватый пройдоха Рэйф Гэттмен тоже попадает в эту переделку и оказывается один на один с дюжиной кровавых вампиров и, мало того, с его Преподобием Джимми Кэррентом, проходимцем, обладающим всемогущим талисманом.
Страна: США
Студия: Universal City Studios, Tales From The Crypt Holdings
Продолжительность: 01:26:32
Перевод: Профессиональный многоголосый, Авторский одноголосый
Субтитры: Отсутствуют
Дата мировой премьеры: 16 августа 1996
Дата выхода DVD релиза: 6 августа 2009, «Настроение Video»
Файл
Формат: MKV
Кодек: MPEG-4 AVC/H.264
Качество: BDRip 720p
Видео: ~ 10.0 Мбит/сек, 1280 x 720, 59.940 кадров/сек
Аудио#1: AC3 2.0, 48.0 KHz, 192 Кбит/сек - Русский ("Премьер-видео")
Аудио#2: AC3 5.1, 48.0 KHz, 448 Кбит/сек - Русский (Ю. Живов)

MediaInfo

Общее
Полное имя : D:\Торренты\Bordello of Blood 60fps.mkv
Формат : Matroska
Версия формата : Version 2
Размер файла : 6,59 Гбайт
Продолжительность : 1 ч. 26 м.
Общий поток : 10,9 Мбит/сек
Название фильма : Bordello of Blood (1996) Blu-ray
Дата кодирования : UTC 2015-05-02 17:19:36
Программа кодирования : mkvmerge v6.9.1 ('Blue Panther') 64bit built on Apr 18 2014 18:23:38
Библиотека кодирования : libebml v1.3.0 + libmatroska v1.4.1
Видео
Идентификатор : 1
Формат : AVC
Формат/Информация : Advanced Video Codec
Профиль формата : [email protected]
Параметр CABAC формата : Да
Параметр ReFrames формата : 6 кадров
Идентификатор кодека : V_MPEG4/ISO/AVC
Продолжительность : 1 ч. 26 м.
Битрейт : 10,0 Мбит/сек
Ширина : 1280 пикселей
Высота : 720 пикселей
Соотношение сторон : 16:9
Режим частоты кадров : Постоянный
Частота кадров : 59,880 кадров/сек
Частота кадров в оригинале : 59,940 кадров/сек
Цветовое пространство : YUV
Субдискретизация насыщенности : 4:2:0
Битовая глубина : 8 бит
Тип развёртки : Прогрессивная
Бит/(Пиксели*Кадры) : 0.182
Размер потока : 6,07 Гбайт (92%)
Заголовок : Release by mimok
Библиотека кодирования : x264 core 130 r2273 b3065e6
Настройки программы : cabac=1 / ref=6 / deblock=1:0:0 / analyse=0x3:0x133 / me=umh / subme=8 / psy=1 / psy_rd=1.00:0.15 / mixed_ref=1 / me_range=20 / chroma_me=1 / trellis=2 / 8x8dct=1 / cqm=0 / deadzone=21,11 / fast_pskip=0 / chroma_qp_offset=-3 / threads=6 / lookahead_threads=2 / sliced_threads=0 / nr=0 / decimate=0 / interlaced=0 / bluray_compat=0 / constrained_intra=0 / bframes=8 / b_pyramid=2 / b_adapt=2 / b_bias=0 / direct=1 / weightb=1 / open_gop=0 / weightp=2 / keyint=250 / keyint_min=25 / scenecut=40 / intra_refresh=0 / rc=crf / mbtree=0 / crf=18.0 / qcomp=0.63 / qpmin=10 / qpmax=51 / qpstep=4 / ip_ratio=1.40 / pb_ratio=1.30 / aq=1:1.20
Default : Да
Forced : Нет
Аудио #1
Идентификатор : 2
Формат : AC-3
Формат/Информация : Audio Coding 3
Расширение режима : CM (complete main)
Параметр Endianness формата : Big
Идентификатор кодека : A_AC3
Продолжительность : 1 ч. 26 м.
Вид битрейта : Постоянный
Битрейт : 192 Кбит/сек
Каналы : 2 канала
Расположение каналов : Front: L R
Частота : 48,0 КГц
Битовая глубина : 16 бит
Метод сжатия : С потерями
Размер потока : 119 Мбайт (2%)
Заголовок : MVO "Премьер-видео"
Язык : Russian
Default : Да
Forced : Нет
Аудио #2
Идентификатор : 3
Формат : AC-3
Формат/Информация : Audio Coding 3
Расширение режима : CM (complete main)
Параметр Endianness формата : Big
Идентификатор кодека : A_AC3
Продолжительность : 1 ч. 26 м.
Вид битрейта : Постоянный
Битрейт : 448 Кбит/сек
Каналы : 6 каналов
Расположение каналов : Front: L C R, Side: L R, LFE
Частота : 48,0 КГц
Битовая глубина : 16 бит
Метод сжатия : С потерями
Размер потока : 277 Мбайт (4%)
Заголовок : VO Ю. Живов
Язык : Russian
Default : Нет
Forced : Нет

Скриншоты:

Яндекс.Метрика
Рейтинг@Mail.ru