[ Сегодня на трекере фрилич! Идет свободное скачивание без начисления Download ]

Крестный отец: Трилогия / The Godfather Collection: The Coppola Restoration (Фрэнсис Форд Коппола / Francis Ford Coppola) [1972 / 1974 / 1990, Криминальная драма, BDRip-AVC] AVO (Михалев, Сербин, Либергал, Володарский, Гаврилов) + Sub (Rus)

 

Создавать темы 03-Май-2015 15:22

Крестный отец: Трилогия / The Godfather Collection: The Coppola Restoration- Год выпуска: 1972 / 1974 / 1990
Производство: США
Жанр: Криминальная драма
Продолжительность: 02:57:09 | 03:22:06 | 02:50:15
Перевод: Авторский (одноголосый) Михалев, Либергал, Володарский (Part I, II) + Сербин (Part I, II, III) + Андрей Гаврилов (Part III)
Субтитры: русские
Режиссер: Фрэнсис Форд Коппола / Francis Ford Coppola-

Part I

Крестный отец / Godfather, The«Настоящая сила не может быть дана, она может быть взята...»- Год выпуска: 1972
Мировая премьера: 24 March 1972 (USA)
Производство: США
Жанр: Драма, Криминал
Продолжительность: 02:57:09
Перевод: Авторский (одноголосый) Михалев, Сербин, Либергал, Володарский
Субтитры: Русские (SRT)
Режиссер: Фрэнсис Форд Коппола / Francis Ford Coppola
В ролях: Марлон Брандо / Marlon Brando, Аль Пачино / Al Pacino, Джеймс Каан / James Caan, Ричард Кастеллано / Richard Castellano, Дайэн Китон / Diane Keaton, Талия Шайр / Talia Shire, Роберт Дюволл / Robert Duvall, Стерлинг Хэйден / Sterling Hayden, Ричард Конте / Richard Conte, Джон Марли / John Marley, Аль Леттьери / Al Lettieri
Описание: По широкоизвестному роману Марио Пьюзо, переведенному и в СССР. Коппола прослеживает историю зарождения и становления итальянской мафии в США. Фильм, удостоенный "Оскара", снят в жанре семейной саги и ярко демонстрирует нравы гангстерских кланов, занятых разделом сфер влияния. Великолепны Брандо в роли главы клана ("Оскар" за мужскую роль) и Пачино в роли наследника. В своем жанре фильм стал классикой. Оскары за лучший фильм, лучшую мужскую роль (Брандо), лучший адаптированный сценарий. Номинации за мужскую роль второго плана (Дювалл и Аль Пачино), режиссуру, монтаж, костюмы, звук. (с) Иванов М.

Качество: BDRip-AVC
Контейнер: MKV
Видео кодек: AVC / h.264
Видео: 1024x576 / 2613 kbps / 23,976 fps / 16:9 / [email protected]
Аудио#1: 48 kHz, AC3 Dolby Digital, 3/2 (L,C,R,l,r) + LFE ch, ~448 kbps avg - Михалев;
Аудио#2: 48 kHz, AC3 Dolby Digital, 3/2 (L,C,R,l,r) + LFE ch, ~448 kbps avg - Сербин;
Аудио#3: 48 kHz, AC3 Dolby Digital, 3/2 (L,C,R,l,r) + LFE ch, ~448 kbps avg - Либергал;
Аудио#4: 48 kHz, AC3 Dolby Digital, 2/0 (L,R) ch, ~192.00 kbps avg - Володарский

Награды

Оскар, 1973 год
Победитель (3):
Лучший фильм
Лучшая мужская роль (Марлон Брандо)
Лучший адаптированный сценарий
Номинации (8):
Лучшая мужская роль второго плана (Аль Пачино)
Лучшая мужская роль второго плана (Роберт Дювалл)
Лучшая мужская роль второго плана (Джеймс Каан)
Лучший режиссер (Френсис Форд Коппола)
Лучшие костюмы
Лучший звук
Лучший монтаж
Лучший саундтрек к драматическому фильму
Золотой глобус, 1973 год
Победитель (5):
Лучшая мужская роль (драма) (Марлон Брандо)
Лучший фильм (драма)
Лучший режиссер (Френсис Форд Коппола)
Лучший сценарий
Лучший саундтрек
Номинации (2):
Лучшая мужская роль (драма) (Аль Пачино)
Лучшая мужская роль второго плана (Джеймс Каан)
Британская академия, 1973 год
Победитель (1):
Премия имени Энтони Эскуита за достижения в создании музыки к фильму
Номинации (4):
Лучшая мужская роль (Марлон Брандо)
Лучшая мужская роль второго плана (Роберт Дювалл)
Лучшие костюмы
Лучший новичок (Аль Пачино)

Знаете ли вы, что...

  • Фильм снят по мотивам романа Марио Пьюзо «Крёстный отец» (The Godfather, 1969).
  • Манеру говорить хриплым голосом создатели фильма взяли дону Корлеоне от знаменитого гангстера Фрэнка Костелло. В детстве Фрэнку случайно повредили голосовые связки во время операции по удалению аденоидов.
  • Композитор Нино Рота был номинирован на «Оскар» за лучшую музыку к фильму, но номинацию отменили, когда выяснилось, что он не писал новой музыки для фильма целиком, а переработал отрывки из старой (из фильма «Фортунелла», 1958).
  • Марио Пьюзо был полностью разорен, когда подписывал контракт с «Random House» на издание «Крестного отца».
  • Студия Paramount приобрела права на экранизацию романа еще до того, как он был опубликован. В распоряжении студии был лишь 20-страничный план романа.
  • Книга Пьюзо стала бестселлером, разойдясь тиражом 10 миллионов экземпляров.
  • Сам писатель как-то признался, что все свои знания о мафии он почерпнул из других книг.
  • Место режиссёра фильма было сначала предложено Серджио Леоне, но тот отказался. Впоследствии Леоне сожалел о своём решении и в 1983 году решил снять столь же масштабный фильм «Однажды в Америке».
  • Кинокомпания Paramount Pictures до начала съёмок хотела отобрать проект у Копполы и передать его режиссёру Элии Казану, но Брандо сказал, что тоже уйдёт, если уволят Копполу.
  • На разные роли в фильме рассматривались: Уоррен Битти, Ален Делон, Берт Рейнолдс, Роберт Редфорд, Дастин Хоффман, Джек Николсон, Роберт Де Ниро, Лоуренс Оливье и другие. Но Коппола отверг все эти кандидатуры.
  • По некоторым сведениям, на роль Вито Корлеоне также претендовал Фрэнк Синатра.
  • Во время съёмок Брандо носил специальную капу, чтобы его челюсть выглядела как челюсть бульдога.
  • Актёр Ленни Монтана, игравший Луку Брази, так трепетал при виде Марлона Брандо, что постоянно путал текст. Копполе понравилась такая натуральная нервозность, и он вставил в фильм сцену прямо со спутанным текстом.
  • Слово «коппола» (итал. coppola) обозначает традиционную сицилийскую шляпу, такие шляпы можно увидеть в некоторых «итальянских» сценах фильма. А Корлеоне (итал. Corleone) — это название горной сицилийской деревушки, многие годы служившей убежищем для мафиози.
  • Марлон Брандо отказался от присуждённого ему «Оскара». На церемонии вручения он отправил на сцену вместо себя Сашин Лёгкое Перо, представительницу индейского племени апачи, которая тоже не приняла премию. Таким образом актёр хотел высказать протест против дискриминации коренного населения Америки
  • В фильме ни разу не звучит слово «мафия».
  • В январе 2008 года компания McFarline выпустила 16-ти сантиметровую фигурку Дона Корлеоне.
  • Прототипом Вито Корлеоне являлся знаменитый ганстер Джозеф «Джо» Бонанно.
  • В 2006 году по фильму вышла компьютерная игра с одноименным названием.
  • Прототипом Джонни Фонтейна являлся Фрэнк Синатра.
  • Съёмки фильма проходили в течение четырёх месяцев в середине 1971 года.
  • По словам Аль Пачино, слезы Марлона Брандо в сцене в госпитале были настоящими.
  • Джеймс Каан и Аль Пачино лишь на 10 лет младше актрисы Морганы Кинг, которая сыграла их мать, а Джон Казале — на 5 лет.
  • Считается, что одной из сцен, в которой показывают жестокость Дона Корлеоне, является сцена, в которой он предлагает избить человека, при этом нежно поглаживая кошку, сидящую у него на коленях. Но дело в том, что никакой кошки не было в сценарии. Эта кошка бродила по съемочной площадке и запрыгнула на колени к Марлону Брандо как раз перед началом съемок.
  • Фильм занимает первое место в списке среди 10 лучших гангстерских фильмов по версии Американского института кино (AFI).
  • Френсис Форд Коппола загорелся идеей снять фильм после прочтения книги. По его словам, если бы он пришёл с этой идеей в студию Paramount на 4 месяца позже, то ему бы не доверили съемки этого фильма. Кинокомпания изначально отнеслась к проекту как к небольшой гангстерской драме и не ожидала большого успеха. Спустя полгода книга Марио Пьюзо обрела большую популярность, а фильм стал ожидаемым проектом. Кинокомпания не решилась менять режиссёра посреди съемок.
  • При утверждении кинопроекта студия Paramount выдвинула требование не привлекать к съемкам Брандо. К тому времени он был известен своими выходками на съемочной площадке, а также проблемами с алкоголем. На роль крестного отца пробовалось несколько актёров, но лучшую игру показал именно Брандо. Студия вынуждена была согласиться с этим фактом.
  • По словам Марио Пьюзо, персонаж Джонни Фонтейна не был основан на факте из биографии Фрэнка Синатры, по слухам получившего роль в фильме Фреда Циннемана «Отныне и вовеки» (1953) вследствие давления на продюсера картины со стороны мафии. Но впоследствии это стало стереотипом, неоднократно опровергаемым биографами Фрэнка Синатры.
  • Всего в фильме показано 18 трупов, включая лошадь.
  • Апельсины являются символом смерти в картине: через некоторое время после их появления в кадре кто-либо погибает.
  • В книге у Майкла и Кей Корлеоне было 2 сына, а в фильме — сын и дочь.
  • Продюсеры всеми силами пытались заставить Френсиса Форда Копполу уволить Пачино со съемок фильма. Просматривая отснятый материал, они постоянно задавали режиссеру один и тот же вопрос: «Когда же он, наконец, начнет ИГРАТЬ?» Только увидев сцену, в которой Майкл Корлеоне убивает комиссара полиции, они поняли гениальную режиссерскую прозорливость Копполы.
  • Сцена, в которой Сонни избивает Карло, снималась в течение 4 дней и потребовала 700 статистов.

x264 log

avs [info]: 1024x576p 1:1 @ 2997/125 fps (cfr)
x264 [info]: using SAR=1/1
x264 [info]: using cpu capabilities: MMX2 SSE2Fast SSSE3 SSE4.2 AVX XOP FMA4 FMA3 LZCNT BMI1
x264 [info]: profile High, level 4.1
x264 [info]: cabac=1 ref=9 deblock=1:-3:-3 analyse=0x3:0x113 me=umh subme=11 psy=1 fade_compensate=0.00 psy_rd=1.05:0.20 mixed_ref=1 me_range=32 chroma_me=1 trellis=2 8x8dct=1 cqm=0 deadzone=21,11 fast_pskip=1 chroma_qp_offset=-3 threads=12 lookahead_threads=3 sliced_threads=0 nr=0 decimate=1 interlaced=0 bluray_compat=0 constrained_intra=0 fgo=0 bframes=10 b_pyramid=2 b_adapt=2 b_bias=0 direct=1 weightb=1 open_gop=0 weightp=2 keyint=250 keyint_min=23 scenecut=40 intra_refresh=0 rc_lookahead=50 rc=crf mbtree=0 crf=19.0000 qcomp=0.60 qpmin=0 qpmax=69 qpstep=4 vbv_maxrate=40000 vbv_bufsize=62500 crf_max=0.0 nal_hrd=none filler=0 ip_ratio=1.40 pb_ratio=1.30 aq=1:1.00
x264 [info]: frame I:1547 Avg QP:17.79 size: 85727
x264 [info]: frame P:51892 Avg QP:18.99 size: 31381
x264 [info]: frame B:201405 Avg QP:21.06 size: 8499
x264 [info]: consecutive B-frames: 1.5% 1.5% 4.1% 15.0% 24.7% 48.5% 2.4% 0.9% 0.5% 0.7% 0.2%
x264 [info]: mb I I16..4: 12.2% 73.5% 14.3%
x264 [info]: mb P I16..4: 0.2% 9.9% 0.8% P16..4: 30.9% 39.6% 16.8% 0.0% 0.0% skip: 1.9%
x264 [info]: mb B I16..4: 0.0% 0.6% 0.0% B16..8: 37.9% 18.2% 2.8% direct: 5.2% skip:35.3% L0:42.3% L1:45.2% BI:12.6%
x264 [info]: 8x8 transform intra:87.9% inter:51.8%
x264 [info]: coded y,uvDC,uvAC intra: 98.1% 86.6% 68.3% inter: 26.7% 13.5% 1.9%
x264 [info]: i16 v,h,dc,p: 10% 5% 39% 46%
x264 [info]: i8 v,h,dc,ddl,ddr,vr,hd,vl,hu: 9% 7% 10% 10% 14% 13% 12% 12% 13%
x264 [info]: i4 v,h,dc,ddl,ddr,vr,hd,vl,hu: 11% 7% 2% 9% 16% 16% 14% 12% 13%
x264 [info]: i8c dc,h,v,p: 44% 21% 18% 17%
x264 [info]: Weighted P-Frames: Y:7.3% UV:4.3%
x264 [info]: ref P L0: 36.5% 9.7% 20.2% 7.4% 8.0% 5.2% 5.9% 3.0% 3.7% 0.4% 0.0%
x264 [info]: ref B L0: 74.4% 10.5% 5.1% 3.3% 2.3% 2.3% 1.3% 0.7%
x264 [info]: ref B L1: 95.6% 4.4%
x264 [info]: kb/s:2613.84

Media Info

Формат : Matroska
Версия формата : Version 4 / Version 2
Размер файла : 5,17 Гбайт
Продолжительность : 2 ч. 57 м.
Общий поток : 4174 Кбит/сек
Название фильма : The Godfather.1972.BDRip-AVC.Mihalev.Serbin.Libergal.Volodarskiy -=anton966=-
Дата кодирования : UTC 2015-04-27 18:25:53
Программа кодирования : mkvmerge v7.8.0 ('River Man') 64bit built on Mar 27 2015 16:31:37
Библиотека кодирования : libebml v1.3.1 + libmatroska v1.4.2
DURATION : 02:51:36.755000000
NUMBER_OF_FRAMES : 3610
NUMBER_OF_BYTES : 6910983
_STATISTICS_WRITING_APP : mkvmerge v7.8.0 ('River Man') 64bit built on Mar 27 2015 16:31:37
_STATISTICS_WRITING_DATE_UTC : 2015-04-27 18:25:53
_STATISTICS_TAGS : BPS DURATION NUMBER_OF_FRAMES NUMBER_OF_BYTES
Видео
Идентификатор : 1
Формат : AVC
Формат/Информация : Advanced Video Codec
Профиль формата : [email protected]
Параметр CABAC формата : Да
Параметр ReFrames формата : 9 кадров
Идентификатор кодека : V_MPEG4/ISO/AVC
Продолжительность : 2 ч. 57 м.
Битрейт : 2555 Кбит/сек
Ширина : 1024 пикселя
Высота : 576 пикселей
Соотношение сторон : 16:9
Режим частоты кадров : Постоянный
Частота кадров : 23,976 кадра/сек
Цветовое пространство : YUV
Субдискретизация насыщенности : 4:2:0
Битовая глубина : 8 бит
Тип развёртки : Прогрессивная
Бит/(Пиксели*Кадры) : 0.181
Размер потока : 3,16 Гбайт (61%)
Заголовок : The Godfather.1972.BDRip-AVC
Библиотека кодирования : x264 core 146 r2538kMod 121396c
Настройки программы : cabac=1 / ref=9 / deblock=1:-3:-3 / analyse=0x3:0x113 / me=umh / subme=11 / psy=1 / fade_compensate=0.00 / psy_rd=1.05:0.20 / mixed_ref=1 / me_range=32 / chroma_me=1 / trellis=2 / 8x8dct=1 / cqm=0 / deadzone=21,11 / fast_pskip=1 / chroma_qp_offset=-3 / threads=12 / lookahead_threads=3 / sliced_threads=0 / nr=0 / decimate=1 / interlaced=0 / bluray_compat=0 / constrained_intra=0 / fgo=0 / bframes=10 / b_pyramid=2 / b_adapt=2 / b_bias=0 / direct=1 / weightb=1 / open_gop=0 / weightp=2 / keyint=250 / keyint_min=23 / scenecut=40 / intra_refresh=0 / rc_lookahead=50 / rc=crf / mbtree=0 / crf=19.0000 / qcomp=0.60 / qpmin=0 / qpmax=69 / qpstep=4 / vbv_maxrate=40000 / vbv_bufsize=62500 / crf_max=0.0 / nal_hrd=none / filler=0 / ip_ratio=1.40 / pb_ratio=1.30 / aq=1:1.00
Язык : English
Default : Да
Forced : Нет
DURATION : 02:57:09.129000000
NUMBER_OF_FRAMES : 254844
NUMBER_OF_BYTES : 3472857047
_STATISTICS_WRITING_APP : mkvmerge v7.8.0 ('River Man') 64bit built on Mar 27 2015 16:31:37
_STATISTICS_WRITING_DATE_UTC : 2015-04-27 18:25:53
_STATISTICS_TAGS : BPS DURATION NUMBER_OF_FRAMES NUMBER_OF_BYTES
Аудио #1
Идентификатор : 2
Формат : AC-3
Формат/Информация : Audio Coding 3
Расширение режима : CM (complete main)
Параметр Endianness формата : Big
Идентификатор кодека : A_AC3
Продолжительность : 2 ч. 57 м.
Вид битрейта : Постоянный
Битрейт : 448 Кбит/сек
Каналы : 6 каналов
Расположение каналов : Front: L C R, Side: L R, LFE
Частота : 48,0 КГц
Битовая глубина : 16 бит
Метод сжатия : С потерями
Размер потока : 568 Мбайт (11%)
Заголовок : Mihalev
Язык : Russian
Default : Да
Forced : Нет
Аудио #2
Идентификатор : 3
Формат : AC-3
Формат/Информация : Audio Coding 3
Расширение режима : CM (complete main)
Параметр Endianness формата : Big
Идентификатор кодека : A_AC3
Продолжительность : 2 ч. 57 м.
Вид битрейта : Постоянный
Битрейт : 448 Кбит/сек
Каналы : 6 каналов
Расположение каналов : Front: L C R, Side: L R, LFE
Частота : 48,0 КГц
Битовая глубина : 16 бит
Метод сжатия : С потерями
Размер потока : 568 Мбайт (11%)
Заголовок : Serbin
Язык : Russian
Default : Нет
Forced : Нет
Аудио #3
Идентификатор : 4
Формат : AC-3
Формат/Информация : Audio Coding 3
Расширение режима : CM (complete main)
Параметр Endianness формата : Big
Идентификатор кодека : A_AC3
Продолжительность : 2 ч. 57 м.
Вид битрейта : Постоянный
Битрейт : 448 Кбит/сек
Каналы : 6 каналов
Расположение каналов : Front: L C R, Side: L R, LFE
Частота : 48,0 КГц
Битовая глубина : 16 бит
Метод сжатия : С потерями
Размер потока : 568 Мбайт (11%)
Заголовок : Libergal
Язык : Russian
Default : Нет
Forced : Нет
Аудио #4
Идентификатор : 5
Формат : AC-3
Формат/Информация : Audio Coding 3
Расширение режима : CM (complete main)
Параметр Endianness формата : Big
Идентификатор кодека : A_AC3
Продолжительность : 2 ч. 57 м.
Вид битрейта : Постоянный
Битрейт : 192 Кбит/сек
Каналы : 2 канала
Расположение каналов : Front: L R
Частота : 48,0 КГц
Битовая глубина : 16 бит
Метод сжатия : С потерями
Размер потока : 243 Мбайт (5%)
Заголовок : Volodarskiy
Язык : Russian
Default : Нет
Forced : Нет
Текст #1
Идентификатор : 6
Формат : PGS
Режим смешивания : zlib
Идентификатор кодека : S_HDMV/PGS
Идентификатор кодека/Информация : Picture based subtitle format used on BDs/HD-DVDs
Заголовок : Ita (Forced)
Язык : Russian
Default : Нет
Forced : Нет
Текст #2
Идентификатор : 7
Формат : PGS
Режим смешивания : zlib
Идентификатор кодека : S_HDMV/PGS
Идентификатор кодека/Информация : Picture based subtitle format used on BDs/HD-DVDs
Язык : Russian
Default : Нет
Forced : Нет
Текст #3
Идентификатор : 8
Формат : PGS
Режим смешивания : zlib
Идентификатор кодека : S_HDMV/PGS
Идентификатор кодека/Информация : Picture based subtitle format used on BDs/HD-DVDs
Заголовок : Киномания / Карусель
Язык : Russian
Default : Нет
Forced : Нет
Текст #4
Идентификатор : 9
Формат : PGS
Режим смешивания : zlib
Идентификатор кодека : S_HDMV/PGS
Идентификатор кодека/Информация : Picture based subtitle format used on BDs/HD-DVDs
Заголовок : iTunes
Язык : Russian
Default : Нет
Forced : Нет
Текст #5
Идентификатор : 10
Формат : PGS
Режим смешивания : zlib
Идентификатор кодека : S_HDMV/PGS
Идентификатор кодека/Информация : Picture based subtitle format used on BDs/HD-DVDs
Заголовок : Позитив
Язык : Russian
Default : Нет
Forced : Нет
Меню
00:00:00.000 : en:I Believe in America
00:07:30.784 : en:The Wedding
00:18:03.624 : en:Johnny Fontaine
00:27:03.455 : en:Tom Hagen Goes to Hollywood
00:34:20.183 : en:Meeting With Sollozzo
00:40:17.749 : en:Shooting of Don Corleone
00:48:52.304 : en:Luca Brasi Sleeps With the Fishes
00:58:18.328 : en:Michael at the Hospital
01:08:44.579 : en:It's Strictly Business
01:15:49.003 : en:How's the Italian Food in This Restaurant?
01:30:00.687 : en:The Don Returns Home
01:37:06.863 : en:The Thunderbolt
01:46:18.163 : en:Sonny Gives Carlo a Warning
01:49:30.189 : en:Michael Marries Apollonia
01:53:57.664 : en:I Don't Want His Mother to See Him This Way
02:03:21.311 : en:Apollonia's Murder
02:06:37.256 : en:We Are All Reasonable Men Here
02:13:28.125 : en:The Don Puts Michael in Charge
02:19:47.462 : en:I'm Moe Green
02:25:56.706 : en:I Never Wanted This for You
02:36:56.032 : en:Baptism and Murder
02:44:43.540 : en:Don't Ask Me About My Business, Kay
02:53:05.750 : en:End Credits

Скриншоты

Part II

Крестный отец 2 / Godfather: Part II, The«The saga continues»- Год выпуска: 1974
Мировая премьера: 20 December 1974 (USA)
Производство: США
Жанр: Криминал, Драма
Продолжительность: 03:22:06
Перевод: Авторский (одноголосый) Михалев, Сербин, Либергал, Володарский
Субтитры: Русские (SRT)
Режиссер: Фрэнсис Форд Коппола / Francis Ford Coppola
В ролях: Аль Пачино / Al Pacino, Роберт Дюволл / Robert Duvall, Дайэн Китон / Diane Keaton, Роберт Де Ниро / Robert De Niro, Джон Казале / Джон Cazale, Талия Шайр / Talia Shire, Ли Страсберг / Lee Strasberg, Майкл В. Гаццо / Michael V. Gazzo, Ричард Брайт / Richard Bright, Дж. Д. Спрэдлин / G. D. Spradlin
Описание: Продолжение "Крестного отца", сделанное столь же мастерски. Искусно монтируя сцены прошлого и настоящего, Коппола в центр драмы выдвигает представителей нового поколения гангстерского клана дона Корлеоне (Де Ниро) и его сына (Пачино), для которых не существует моральных преград в достижении поставленных целей. Они превращают мафию, построенную по патриархальным, еще сицилийским законам, в весьма прагматичную, жестокую корпорацию, плавно интегрирующуюся в большой бизнес Америки. Фильм удостоен шести премий "Оскар": за лучший фильм, мужскую роль второго плана (Де Ниро), режиссуру, адаптированный сценарий, музыкальное сопровождение, работу художников. Номинации: за лучшую мужскую роль (Пачино), мужскую роль второго плана (Гаццо, Ли Страсберг), женскую роль второго плана (Шайр) и костюмы.(c) Иванов М.

Качество: BDRip-AVC
Контейнер: MKV
Видео кодек: AVC / h.264
Видео: 1024x576 / 2713 kbps / 23,976 fps / 16:9 / [email protected]
Аудио#1: 48 kHz, AC3 Dolby Digital, 3/2 (L,C,R,l,r) + LFE ch, ~448 kbps avg - Михалев;
Аудио#2: 48 kHz, AC3 Dolby Digital, 3/2 (L,C,R,l,r) + LFE ch, ~448 kbps avg - Сербин;
Аудио#3: 48 kHz, AC3 Dolby Digital, 3/2 (L,C,R,l,r) + LFE ch, ~448 kbps avg - Либергал;
Аудио#4: 48 kHz, AC3 Dolby Digital, 2/0 (L,R) ch, ~192.00 kbps avg - Володарский;

Награды

Британская академия, 1976 год
Номинации (3):
Лучший монтаж
Лучший новичок (Роберт Де Ниро)
Премия имени Энтони Эскуита за достижения в создании музыки к фильму
Оскар, 1975 год
Победитель (6):
Лучший фильм
Лучшая мужская роль второго плана (Роберт Де Ниро)
Лучший режиссер (Френсис Форд Коппола)
Лучший адаптированный сценарий
Лучшие декорации
Лучший саундтрек к драматическому фильму
Номинации (5):
Лучшая мужская роль (Аль Пачино)
Лучшая мужская роль второго плана (Ли Страсберг)
Лучшая мужская роль второго плана (Майкл В. Гаццо)
Лучшая женская роль второго плана (Талия Шайр)
Лучшие костюмы
Золотой глобус, 1975 год
Номинации (6):
Лучшая мужская роль (драма) (Аль Пачино)
Лучший фильм (драма)
Лучший режиссер (Френсис Форд Коппола)
Лучший сценарий
Лучший саундтрек
Самый многообещающий новичок среди мужчин (Ли Страсберг)

x264 log

avs [info]: 1024x576p 1:1 @ 2997/125 fps (cfr)
x264 [info]: using SAR=1/1
x264 [info]: using cpu capabilities: MMX2 SSE2Fast SSSE3 SSE4.2 AVX XOP FMA4 FMA3 LZCNT BMI1
x264 [info]: profile High, level 4.1
x264 [info]: cabac=1 ref=9 deblock=1:-2:-1 analyse=0x3:0x113 me=umh subme=11 psy=1 fade_compensate=0.00 psy_rd=0.95:0.20 mixed_ref=1 me_range=32 chroma_me=1 trellis=2 8x8dct=1 cqm=0 deadzone=21,11 fast_pskip=1 chroma_qp_offset=-3 threads=12 lookahead_threads=2 sliced_threads=0 nr=0 decimate=1 interlaced=0 bluray_compat=0 constrained_intra=0 fgo=0 bframes=9 b_pyramid=2 b_adapt=2 b_bias=0 direct=1 weightb=1 open_gop=0 weightp=2 keyint=250 keyint_min=23 scenecut=40 intra_refresh=0 rc_lookahead=50 rc=crf mbtree=0 crf=19.0000 qcomp=0.60 qpmin=0 qpmax=69 qpstep=4 vbv_maxrate=40000 vbv_bufsize=62500 crf_max=0.0 nal_hrd=none filler=0 ip_ratio=1.43 pb_ratio=1.30 aq=1:1.00
x264 [info]: frame I:1816 Avg QP:17.54 size: 85328
x264 [info]: frame P:55192 Avg QP:18.86 size: 29797
x264 [info]: frame B:233734 Avg QP:20.70 size: 9899
x264 [info]: consecutive B-frames: 1.2% 0.9% 3.8% 8.2% 16.8% 62.0% 4.1% 1.2% 1.5% 0.4%
x264 [info]: mb I I16..4: 11.1% 74.7% 14.2%
x264 [info]: mb P I16..4: 0.2% 8.3% 0.7% P16..4: 31.8% 40.4% 17.1% 0.0% 0.0% skip: 1.6%
x264 [info]: mb B I16..4: 0.0% 0.6% 0.0% B16..8: 39.8% 20.7% 3.2% direct: 5.1% skip:30.5% L0:44.8% L1:44.9% BI:10.2%
x264 [info]: 8x8 transform intra:88.0% inter:54.4%
x264 [info]: coded y,uvDC,uvAC intra: 98.1% 88.2% 72.2% inter: 29.9% 13.9% 2.0%
x264 [info]: i16 v,h,dc,p: 9% 5% 41% 45%
x264 [info]: i8 v,h,dc,ddl,ddr,vr,hd,vl,hu: 10% 8% 12% 9% 13% 12% 12% 12% 13%
x264 [info]: i4 v,h,dc,ddl,ddr,vr,hd,vl,hu: 12% 8% 2% 9% 15% 15% 14% 12% 13%
x264 [info]: i8c dc,h,v,p: 44% 21% 18% 16%
x264 [info]: Weighted P-Frames: Y:5.7% UV:2.6%
x264 [info]: ref P L0: 34.4% 8.8% 20.6% 7.8% 8.7% 5.6% 6.6% 3.2% 4.0% 0.4% 0.0%
x264 [info]: ref B L0: 66.1% 13.0% 7.2% 4.6% 3.3% 3.3% 1.8% 0.8%
x264 [info]: ref B L1: 93.4% 6.6%
x264 [info]: kb/s:2713.55

Media Info

Формат : Matroska
Версия формата : Version 4 / Version 2
Размер файла : 6,03 Гбайт
Продолжительность : 3 ч. 22 м.
Общий поток : 4269 Кбит/сек
Название фильма : The Godfather Part II.1974.BDRip-AVC.Mihalev.Serbin.Libergal.Volodarskiy -=anton966=-
Дата кодирования : UTC 2015-04-29 16:03:34
Программа кодирования : mkvmerge v7.8.0 ('River Man') 64bit built on Mar 27 2015 16:31:37
Библиотека кодирования : libebml v1.3.1 + libmatroska v1.4.2
DURATION : 03:15:14.090000000
NUMBER_OF_FRAMES : 3034
NUMBER_OF_BYTES : 6701786
_STATISTICS_WRITING_APP : mkvmerge v7.8.0 ('River Man') 64bit built on Mar 27 2015 16:31:37
_STATISTICS_WRITING_DATE_UTC : 2015-04-29 16:03:34
_STATISTICS_TAGS : BPS DURATION NUMBER_OF_FRAMES NUMBER_OF_BYTES
Видео
Идентификатор : 1
Формат : AVC
Формат/Информация : Advanced Video Codec
Профиль формата : [email protected]
Параметр CABAC формата : Да
Параметр ReFrames формата : 9 кадров
Идентификатор кодека : V_MPEG4/ISO/AVC
Продолжительность : 3 ч. 22 м.
Битрейт : 2648 Кбит/сек
Ширина : 1024 пикселя
Высота : 576 пикселей
Соотношение сторон : 16:9
Режим частоты кадров : Постоянный
Частота кадров : 23,976 кадра/сек
Цветовое пространство : YUV
Субдискретизация насыщенности : 4:2:0
Битовая глубина : 8 бит
Тип развёртки : Прогрессивная
Бит/(Пиксели*Кадры) : 0.187
Размер потока : 3,74 Гбайт (62%)
Заголовок : The Godfather Part II.1974.BDRip-AVC
Библиотека кодирования : x264 core 146 r2538kMod 121396c
Настройки программы : cabac=1 / ref=9 / deblock=1:-2:-1 / analyse=0x3:0x113 / me=umh / subme=11 / psy=1 / fade_compensate=0.00 / psy_rd=0.95:0.20 / mixed_ref=1 / me_range=32 / chroma_me=1 / trellis=2 / 8x8dct=1 / cqm=0 / deadzone=21,11 / fast_pskip=1 / chroma_qp_offset=-3 / threads=12 / lookahead_threads=2 / sliced_threads=0 / nr=0 / decimate=1 / interlaced=0 / bluray_compat=0 / constrained_intra=0 / fgo=0 / bframes=9 / b_pyramid=2 / b_adapt=2 / b_bias=0 / direct=1 / weightb=1 / open_gop=0 / weightp=2 / keyint=250 / keyint_min=23 / scenecut=40 / intra_refresh=0 / rc_lookahead=50 / rc=crf / mbtree=0 / crf=19.0000 / qcomp=0.60 / qpmin=0 / qpmax=69 / qpstep=4 / vbv_maxrate=40000 / vbv_bufsize=62500 / crf_max=0.0 / nal_hrd=none / filler=0 / ip_ratio=1.43 / pb_ratio=1.30 / aq=1:1.00
Язык : English
Default : Да
Forced : Нет
DURATION : 03:22:06.377000000
NUMBER_OF_FRAMES : 290742
NUMBER_OF_BYTES : 4113196177
_STATISTICS_WRITING_APP : mkvmerge v7.8.0 ('River Man') 64bit built on Mar 27 2015 16:31:37
_STATISTICS_WRITING_DATE_UTC : 2015-04-29 16:03:34
_STATISTICS_TAGS : BPS DURATION NUMBER_OF_FRAMES NUMBER_OF_BYTES
Аудио #1
Идентификатор : 2
Формат : AC-3
Формат/Информация : Audio Coding 3
Расширение режима : CM (complete main)
Параметр Endianness формата : Big
Идентификатор кодека : A_AC3
Продолжительность : 3 ч. 22 м.
Вид битрейта : Постоянный
Битрейт : 448 Кбит/сек
Каналы : 6 каналов
Расположение каналов : Front: L C R, Side: L R, LFE
Частота : 48,0 КГц
Битовая глубина : 16 бит
Метод сжатия : С потерями
Размер потока : 648 Мбайт (10%)
Заголовок : Mihalev
Язык : Russian
Default : Да
Forced : Нет
Аудио #2
Идентификатор : 3
Формат : AC-3
Формат/Информация : Audio Coding 3
Расширение режима : CM (complete main)
Параметр Endianness формата : Big
Идентификатор кодека : A_AC3
Продолжительность : 3 ч. 22 м.
Вид битрейта : Постоянный
Битрейт : 448 Кбит/сек
Каналы : 6 каналов
Расположение каналов : Front: L C R, Side: L R, LFE
Частота : 48,0 КГц
Битовая глубина : 16 бит
Метод сжатия : С потерями
Размер потока : 648 Мбайт (10%)
Заголовок : Serbin
Язык : Russian
Default : Нет
Forced : Нет
Аудио #3
Идентификатор : 4
Формат : AC-3
Формат/Информация : Audio Coding 3
Расширение режима : CM (complete main)
Параметр Endianness формата : Big
Идентификатор кодека : A_AC3
Продолжительность : 3 ч. 22 м.
Вид битрейта : Постоянный
Битрейт : 448 Кбит/сек
Каналы : 6 каналов
Расположение каналов : Front: L C R, Side: L R, LFE
Частота : 48,0 КГц
Битовая глубина : 16 бит
Метод сжатия : С потерями
Размер потока : 648 Мбайт (10%)
Заголовок : Libergal
Язык : Russian
Default : Нет
Forced : Нет
Аудио #4
Идентификатор : 5
Формат : AC-3
Формат/Информация : Audio Coding 3
Расширение режима : CM (complete main)
Параметр Endianness формата : Big
Идентификатор кодека : A_AC3
Продолжительность : 3 ч. 22 м.
Вид битрейта : Постоянный
Битрейт : 192 Кбит/сек
Каналы : 2 канала
Расположение каналов : Front: L R
Частота : 48,0 КГц
Битовая глубина : 16 бит
Метод сжатия : С потерями
Размер потока : 278 Мбайт (4%)
Заголовок : Volodarskiy
Язык : Russian
Default : Нет
Forced : Нет
Текст #1
Идентификатор : 6
Формат : PGS
Режим смешивания : zlib
Идентификатор кодека : S_HDMV/PGS
Идентификатор кодека/Информация : Picture based subtitle format used on BDs/HD-DVDs
Заголовок : the Italian speaking and writing
Язык : Russian
Default : Нет
Forced : Нет
Текст #2
Идентификатор : 7
Формат : PGS
Режим смешивания : zlib
Идентификатор кодека : S_HDMV/PGS
Идентификатор кодека/Информация : Picture based subtitle format used on BDs/HD-DVDs
Язык : Russian
Default : Нет
Forced : Нет
Текст #3
Идентификатор : 8
Формат : PGS
Режим смешивания : zlib
Идентификатор кодека : S_HDMV/PGS
Идентификатор кодека/Информация : Picture based subtitle format used on BDs/HD-DVDs
Заголовок : Kinomania
Язык : Russian
Default : Нет
Forced : Нет
Текст #4
Идентификатор : 9
Формат : PGS
Режим смешивания : zlib
Идентификатор кодека : S_HDMV/PGS
Идентификатор кодека/Информация : Picture based subtitle format used on BDs/HD-DVDs
Заголовок : iTunes
Язык : Russian
Default : Нет
Forced : Нет
Меню
00:00:00.000 : en:
00:03:40.426 : en:
00:07:29.740 : en:
00:12:04.763 : en:
00:16:18.183 : en:
00:27:38.114 : en:
00:34:28.190 : en:
00:43:44.704 : en:
00:49:32.510 : en:
00:59:50.085 : en:
01:12:52.033 : en:
01:17:13.587 : en:
01:26:18.881 : en:
01:47:22.225 : en:
01:50:16.943 : en:
01:55:32.425 : en:
02:06:50.685 : en:
02:13:12.484 : en:
02:20:50.483 : en:
02:28:29.691 : en:
02:33:35.956 : en:
02:37:57.009 : en:
02:44:08.504 : en:
02:51:08.381 : en:
02:56:46.718 : en:
03:01:32.879 : en:
03:05:20.397 : en:
03:07:25.859 : en:
03:12:01.510 : en:
03:16:56.968 : en:

Скриншоты

]

Part III

Крестный отец 3 / Godfather: Part III, The
«Настоящую власть никто не дает. Её нужно взять.»
- Год выпуска: 1990
Страна: США
Жанр: Криминальная драма
Продолжительность: 02:50:15
Перевод: Авторский (одноголосый) Сербин, Гаврилов
Cубтитры: русские
Режиссер: Фрэнсис Форд Коппола / Francis Ford Coppola
В ролях: Аль Пачино /Al Pacino/, Дайэн Китон /Diane Keaton/, Энди Гарсиа /Andy Garcia/, Талия Шайр /Talia Shire/, София Коппола /Sofia Coppola/, Джо Мантенья /Joe Mantegna/, Илай Уоллак /Eli Wallach/, Бриджет Фонда /Bridget Fonda/, Раф Валлоне /Raf Vallone/, Джордж Хэмилтон /George Hamilton/
Описание: Завершающая часть знаменитой киносаги о мафии. Прошли годы и заметно постаревший дон Майкл Корлеоне (Аль Пачино) намерен всецело отказаться от незаконного бизнеса и перейти из теневой в легальную экономику. Но все не так уж просто, нужно одобрение Ватикана, а тут сплошные интриги, как и везде. Едва удается дону спасти свою жизнь во время заварушки в Атлантик-сити. Семейные проблемы прослаиваются проблемами мафиозного клана и происками недоброжелателей. Все это по-копполовски крупномасштабно, академично и столь же динамично и легко, как в первой и во второй частях саги. Номинации: за лучший фильм, мужскую роль второго плана (Гарсиа), режиссуру, операторскую работу, монтаж, песню (Кармайн Коппола, музыка, Джон Беттис, слова), работу художника (Дин Тавуларис) и декорации (Гэри Феттис). (с) Иванов М.

Качество: BDRip-AVC
Контейнер: MKV
Видео кодек: AVC / h.264
Видео: 1040x588 / 2375 kbps / 23,976 fps / 16:9 / [email protected]
Аудио#1: 48 kHz, AC3 Dolby Digital, 3/2 (L,C,R,l,r) + LFE ch, ~448 kbps avg - Сербин;
Аудио#2: 48 kHz, AC3 Dolby Digital, 3/2 (L,C,R,l,r) + LFE ch, ~448 kbps avg - Гаврилов;

Премии и награды

Оскар, 1991 год
Номинации (7):
Лучший фильм
Лучшая мужская роль второго плана (Энди Гарсиа)
Лучший режиссер (Френсис Форд Коппола)
Лучшая работа оператора
Лучшие декорации
Лучший монтаж
Лучшая песня — «Promise Me You'll Remember»
Золотой глобус, 1991 год
Номинации (7):
Лучший фильм (драма)
Лучшая мужская роль (драма) (Аль Пачино)
Лучшая мужская роль второго плана (Энди Гарсиа)
Лучший режиссер (Френсис Форд Коппола)
Лучший сценарий
Лучшая песня — «Promise Me You'll Remember»
Лучший саундтрек
Золотая малина, 1991 год
Победитель (2):
Худшая женская роль второго плана (София Коппола)
Худшая новая звезда (София Коппола)

x264 log

avs [info]: 1040x588p 1:1 @ 2997/125 fps (cfr)
x264 [info]: using SAR=1/1
x264 [info]: using cpu capabilities: MMX2 SSE2Fast SSSE3 SSE4.2 AVX XOP FMA4 FMA3 LZCNT BMI1
x264 [info]: profile High, level 4.1
x264 [info]: cabac=1 ref=10 deblock=1:-2:-1 analyse=0x3:0x113 me=umh subme=11 psy=1 fade_compensate=0.00 psy_rd=0.97:0.20 mixed_ref=1 me_range=32 chroma_me=1 trellis=2 8x8dct=1 cqm=0 deadzone=21,11 fast_pskip=1 chroma_qp_offset=-3 threads=12 lookahead_threads=3 sliced_threads=0 nr=0 decimate=1 interlaced=0 bluray_compat=0 constrained_intra=0 fgo=0 bframes=12 b_pyramid=2 b_adapt=2 b_bias=0 direct=1 weightb=1 open_gop=0 weightp=2 keyint=250 keyint_min=23 scenecut=40 intra_refresh=0 rc_lookahead=50 rc=crf mbtree=0 crf=19.5000 qcomp=0.60 qpmin=0 qpmax=69 qpstep=4 vbv_maxrate=40000 vbv_bufsize=62500 crf_max=0.0 nal_hrd=none filler=0 ip_ratio=1.43 pb_ratio=1.30 aq=1:1.00
x264 [info]: frame I:1628 Avg QP:17.51 size: 86015
x264 [info]: frame P:45062 Avg QP:18.98 size: 26496
x264 [info]: frame B:198231 Avg QP:20.78 size: 8573
x264 [info]: consecutive B-frames: 1.1% 0.9% 2.2% 7.9% 20.5% 55.6% 5.2% 3.0% 1.1% 0.6% 0.4% 1.2% 0.3%
x264 [info]: mb I I16..4: 12.2% 71.5% 16.3%
x264 [info]: mb P I16..4: 0.2% 5.4% 0.6% P16..4: 34.1% 40.9% 15.7% 0.0% 0.0% skip: 3.2%
x264 [info]: mb B I16..4: 0.0% 0.3% 0.0% B16..8: 39.7% 18.5% 2.7% direct: 4.1% skip:34.7% L0:45.6% L1:46.2% BI: 8.2%
x264 [info]: 8x8 transform intra:83.2% inter:54.3%
x264 [info]: coded y,uvDC,uvAC intra: 97.4% 81.4% 63.3% inter: 24.3% 10.3% 1.3%
x264 [info]: i16 v,h,dc,p: 9% 4% 39% 48%
x264 [info]: i8 v,h,dc,ddl,ddr,vr,hd,vl,hu: 9% 7% 13% 10% 13% 12% 12% 11% 13%
x264 [info]: i4 v,h,dc,ddl,ddr,vr,hd,vl,hu: 14% 8% 3% 9% 14% 14% 13% 12% 13%
x264 [info]: i8c dc,h,v,p: 41% 25% 20% 14%
x264 [info]: Weighted P-Frames: Y:4.4% UV:3.0%
x264 [info]: ref P L0: 36.8% 8.4% 19.0% 7.9% 7.5% 5.6% 5.6% 3.1% 3.2% 2.9% 0.2% 0.0%
x264 [info]: ref B L0: 62.4% 13.2% 8.2% 4.7% 3.7% 3.3% 2.7% 1.2% 0.6%
x264 [info]: ref B L1: 91.0% 9.0%
x264 [info]: kb/s:2375.58

Media Info

Формат : Matroska
Версия формата : Version 4 / Version 2
Размер файла : 3,91 Гбайт
Продолжительность : 2 ч. 50 м.
Общий поток : 3289 Кбит/сек
Название фильма : The Godfather Trilogy\The Godfather.Part III.1990.BDRip-AVC.Serbin.Gavrilov -=anton966=-
Дата кодирования : UTC 2015-04-30 05:22:58
Программа кодирования : mkvmerge v7.8.0 ('River Man') 64bit built on Mar 27 2015 16:31:37
Библиотека кодирования : libebml v1.3.1 + libmatroska v1.4.2
DURATION : 02:38:40.146000000
NUMBER_OF_FRAMES : 2606
NUMBER_OF_BYTES : 5425230
_STATISTICS_WRITING_APP : mkvmerge v7.8.0 ('River Man') 64bit built on Mar 27 2015 16:31:37
_STATISTICS_WRITING_DATE_UTC : 2015-04-30 05:22:58
_STATISTICS_TAGS : BPS DURATION NUMBER_OF_FRAMES NUMBER_OF_BYTES
Видео
Идентификатор : 1
Формат : AVC
Формат/Информация : Advanced Video Codec
Профиль формата : [email protected]
Параметр CABAC формата : Да
Параметр ReFrames формата : 10 кадров
Идентификатор кодека : V_MPEG4/ISO/AVC
Продолжительность : 2 ч. 50 м.
Битрейт : 2328 Кбит/сек
Ширина : 1040 пикселей
Высота : 588 пикселей
Соотношение сторон : 16:9
Режим частоты кадров : Постоянный
Частота кадров : 23,976 кадра/сек
Цветовое пространство : YUV
Субдискретизация насыщенности : 4:2:0
Битовая глубина : 8 бит
Тип развёртки : Прогрессивная
Бит/(Пиксели*Кадры) : 0.159
Размер потока : 2,77 Гбайт (71%)
Заголовок : The Godfather.Part III.1990.BDRip-AVC
Библиотека кодирования : x264 core 146 r2538kMod 121396c
Настройки программы : cabac=1 / ref=10 / deblock=1:-2:-1 / analyse=0x3:0x113 / me=umh / subme=11 / psy=1 / fade_compensate=0.00 / psy_rd=0.97:0.20 / mixed_ref=1 / me_range=32 / chroma_me=1 / trellis=2 / 8x8dct=1 / cqm=0 / deadzone=21,11 / fast_pskip=1 / chroma_qp_offset=-3 / threads=12 / lookahead_threads=3 / sliced_threads=0 / nr=0 / decimate=1 / interlaced=0 / bluray_compat=0 / constrained_intra=0 / fgo=0 / bframes=12 / b_pyramid=2 / b_adapt=2 / b_bias=0 / direct=1 / weightb=1 / open_gop=0 / weightp=2 / keyint=250 / keyint_min=23 / scenecut=40 / intra_refresh=0 / rc_lookahead=50 / rc=crf / mbtree=0 / crf=19.5000 / qcomp=0.60 / qpmin=0 / qpmax=69 / qpstep=4 / vbv_maxrate=40000 / vbv_bufsize=62500 / crf_max=0.0 / nal_hrd=none / filler=0 / ip_ratio=1.43 / pb_ratio=1.30 / aq=1:1.00
Язык : English
Default : Да
Forced : Нет
DURATION : 02:50:15.257000000
NUMBER_OF_FRAMES : 244921
NUMBER_OF_BYTES : 3033402070
_STATISTICS_WRITING_APP : mkvmerge v7.8.0 ('River Man') 64bit built on Mar 27 2015 16:31:37
_STATISTICS_WRITING_DATE_UTC : 2015-04-30 05:22:58
_STATISTICS_TAGS : BPS DURATION NUMBER_OF_FRAMES NUMBER_OF_BYTES
Аудио #1
Идентификатор : 2
Формат : AC-3
Формат/Информация : Audio Coding 3
Расширение режима : CM (complete main)
Параметр Endianness формата : Big
Идентификатор кодека : A_AC3
Продолжительность : 2 ч. 50 м.
Вид битрейта : Постоянный
Битрейт : 448 Кбит/сек
Каналы : 6 каналов
Расположение каналов : Front: L C R, Side: L R, LFE
Частота : 48,0 КГц
Битовая глубина : 16 бит
Метод сжатия : С потерями
Размер потока : 546 Мбайт (14%)
Заголовок : Serbin
Язык : Russian
Default : Да
Forced : Нет
Аудио #2
Идентификатор : 3
Формат : AC-3
Формат/Информация : Audio Coding 3
Расширение режима : CM (complete main)
Параметр Endianness формата : Big
Идентификатор кодека : A_AC3
Продолжительность : 2 ч. 50 м.
Вид битрейта : Постоянный
Битрейт : 448 Кбит/сек
Каналы : 6 каналов
Расположение каналов : Front: L C R, Side: L R, LFE
Частота : 48,0 КГц
Битовая глубина : 16 бит
Метод сжатия : С потерями
Размер потока : 546 Мбайт (14%)
Заголовок : Gavrilov
Язык : Russian
Default : Нет
Forced : Нет
Текст #1
Идентификатор : 4
Формат : PGS
Режим смешивания : zlib
Идентификатор кодека : S_HDMV/PGS
Идентификатор кодека/Информация : Picture based subtitle format used on BDs/HD-DVDs
Заголовок : the Italian speaking and writing
Язык : Russian
Default : Нет
Forced : Нет
Текст #2
Идентификатор : 5
Формат : PGS
Режим смешивания : zlib
Идентификатор кодека : S_HDMV/PGS
Идентификатор кодека/Информация : Picture based subtitle format used on BDs/HD-DVDs
Язык : Russian
Default : Нет
Forced : Нет
Текст #3
Идентификатор : 6
Формат : PGS
Режим смешивания : zlib
Идентификатор кодека : S_HDMV/PGS
Идентификатор кодека/Информация : Picture based subtitle format used on BDs/HD-DVDs
Заголовок : Kinomania
Язык : Russian
Default : Нет
Forced : Нет
Текст #4
Идентификатор : 7
Формат : PGS
Режим смешивания : zlib
Идентификатор кодека : S_HDMV/PGS
Идентификатор кодека/Информация : Picture based subtitle format used on BDs/HD-DVDs
Заголовок : iTunes
Язык : Russian
Default : Нет
Forced : Нет
Меню
00:00:00.000 : en:
00:06:01.150 : en:
00:14:36.332 : en:
00:23:00.086 : en:
00:32:25.317 : en:
00:39:26.197 : en:
00:43:00.286 : en:
00:49:31.050 : en:
00:53:31.583 : en:
01:04:12.264 : en:
01:12:41.273 : en:
01:16:32.712 : en:
01:19:46.198 : en:
01:25:00.720 : en:
01:33:08.416 : en:
01:38:18.600 : en:
01:49:40.363 : en:
02:03:38.786 : en:
02:06:16.359 : en:
02:12:26.354 : en:
02:17:46.299 : en:
02:26:51.301 : en:
02:35:44.626 : en:
02:40:44.924 : en:
02:42:45.337 : en:

Скриншоты

Яндекс.Метрика
Рейтинг@Mail.ru