Патруль времени / Предопределение / Predestination (Майкл Спириг / Michael Spierig, Питер Спириг / Peter Spierig) [2014, Австралия, фантастика, боевик, триллер, драма, детектив, BDRip] Dub + Original Eng + Subs

 

Создавать темы 04-Май-2015 08:45

Патруль времени / Предопределение / Predestination
«Чтобы сохранить будущее, он должен изменить прошлое»
- Страна: Австралия / Blacklab Entertainment, Screen Australia, Screen Queensland, Wolfhound Pictures
Жанр: фантастика, боевик, триллер, драма, детектив
Год выпуска: 2014
Продолжительность: 01:37:48
Перевод: Профессиональный (дублированный) лицензия BD
Cубтитры: русские (full Dr_noise) + английские (full) внешние
Оригинальная аудиодорожка: английский
Режиссёры: Майкл Спириг / Michael Spierig, Питер Спириг / Peter Spierig
В ролях: Итан Хоук, Сара Снук, Кристофер Кирби, Кристофер Соммерс, Куни Хасимото, Сара Эль-Яафи, Пол Модер, Грант Пиро, Кристофер Бануорс, Джэми Глисон, Кейт Вульф, Ноа Тейлор, Алисия Павлис.
Описание:
Будущее. Учёные создали машину времени, и с этим изобретением мир вышел на новый виток цивилизации. Благодаря изобретению появилась возможность исправлять ошибки прошлого, чтобы сделать настоящее лучше. Также машина дала возможность предотвращать преступления до их реализации. Для этой цели были отобраны лучшие полицейские.
Главный герой — полицейский времени, который уже успел предотвратить огромное количество преступлений благодаря путешествиям сквозь время. Однако все его заслуги меркнут, потому что он неспособен остановить угрозу, намеревающуюся уничтожить Нью-Йорк.-Рейтинг
imdb.com: 7.40 (107 457)
kinopoisk.ru: 7.093 (30 004)
MPAA: - лицам до 17 лет обязательно присутствие взрослого-Сэмпл: http://multi-up.com/1036921-Качество видео: BDRip [Predestination.2014.BDRemux.1080p.ExKinoRay.mkv]
Формат видео: AVI
Видео: XviD build 66, 720x304 (2.37:1), 23.976 fps, ~2279 kbps avg, 0.434 bit/pixel
Аудио 1: 48 kHz, AC3 Dolby Digital, 3/2 (L,C,R,l,r) + LFE ch, ~448 kbps avg (RUS)
Аудио 2: 48 kHz, AC3 Dolby Digital, 3/2 (L,C,R,l,r) + LFE ch, ~448 kbps avg (ENG)
Формат субтитров: softsub (SRT)
-

MediaInfo

[font="Georgia"]Общее
Полное имя : D:\Predestination.2014.DUAL.BDRip.2,18Gb.XviD.AC3\Predestination.2014.DUAL.BDRip.2,18Gb.XviD.AC3.avi
Формат : AVI
Формат/Информация : Audio Video Interleave
Профиль формата : OpenDML
Размер файла : 2,18 Гбайт
Продолжительность : 1 ч. 37 м.
Общий поток : 3193 Кбит/сек
Название фильма : Predestination 2014
Режиссёр : Michael Spierig, Peter Spierig
Дата записи : 26.02.2015
Программа кодирования : VirtualDubModRus 1.5.10.2 (build 2542/release)
Библиотека кодирования : VirtualDubMod build 2542/release
Правообладатель : Rutracker.org
Примечание : BDRip by MooN_WalkeR
Видео
Идентификатор : 0
Формат : MPEG-4 Visual
Профиль формата : Advanced [email protected]
Параметр BVOP формата : 1
Параметр QPel формата : Нет
Параметр GMC формата : Без точки перехода
Параметр матрицы формата : Выборочная
Идентификатор кодека : XVID
Идентификатор кодека/Подсказка : XviD
Продолжительность : 1 ч. 37 м.
Битрейт : 2279 Кбит/сек
Ширина : 720 пикселей
Высота : 304 пикселя
Соотношение сторон : 2,35:1
Частота кадров : 23,976 кадра/сек
Цветовое пространство : YUV
Субдискретизация насыщенности : 4:2:0
Битовая глубина : 8 бит
Тип развёртки : Прогрессивная
Метод сжатия : С потерями
Бит/(Пиксели*Кадры) : 0.434
Размер потока : 1,56 Гбайт (71%)
Библиотека кодирования : XviD 66
Аудио #1
Идентификатор : 1
Формат : AC-3
Формат/Информация : Audio Coding 3
Расширение режима : CM (complete main)
Параметр Endianness формата : Big
Идентификатор кодека : 2000
Продолжительность : 1 ч. 37 м.
Вид битрейта : Постоянный
Битрейт : 448 Кбит/сек
Каналы : 6 каналов
Расположение каналов : Front: L C R, Side: L R, LFE
Частота : 48,0 КГц
Битовая глубина : 16 бит
Метод сжатия : С потерями
Размер потока : 313 Мбайт (14%)
Выравнивание : Разделение по промежуткам
Продолжительность промежутка : 42 мс. (1,00 видеокадр)
Время предзагрузки промежутка : 500 мс.
Заголовок : RUS
Аудио #2
Идентификатор : 2
Формат : AC-3
Формат/Информация : Audio Coding 3
Расширение режима : CM (complete main)
Параметр Endianness формата : Big
Идентификатор кодека : 2000
Продолжительность : 1 ч. 37 м.
Вид битрейта : Постоянный
Битрейт : 448 Кбит/сек
Каналы : 6 каналов
Расположение каналов : Front: L C R, Side: L R, LFE
Частота : 48,0 КГц
Битовая глубина : 16 бит
Метод сжатия : С потерями
Размер потока : 313 Мбайт (14%)
Выравнивание : Разделение по промежуткам
Продолжительность промежутка : 42 мс. (1,00 видеокадр)
Время предзагрузки промежутка : 500 мс.
Заголовок : ENG[/font]

Скриншоты:

Яндекс.Метрика
Рейтинг@Mail.ru