Риддик / Riddick (Дэвид Туи) [2013 г.,Фантастика, Боевик, Триллер, DVDRip-AVC][Чистый звук]

 

Создавать темы 06-Дек-2013 02:09

- Год выпуска: 2013
Страна: США, Великобритания
Жанр: фантастика, боевик, триллер
Продолжительность: 01:58:39-Перевод: Профессиональный (полное дублирование)[Чистый звук]
Режиссер: Дэвид Туи / David Twohy
В ролях: Вин Дизель (Riddick), Хорди Молья (Santana), Мэтью Нэйбл (Boss Johns), Кэти Сакхофф (Dahl), Дэйв Батиста (Diaz), Букем Вудбайн (Moss), Рауль Трухильо (Lockspur), Конрад Пла (Vargas), Дэнни Бланко (Falco), Карл Урбан (Vaako), Ной Дэнби (Nunez), Нил Напье (Rubio)-Описание: Преданный своими и брошенный умирать на пустынной планете, Риддик сражается с хищниками за жизнь и становится сильнее и опаснее себя прежнего. Открывшие на него охоту галактические наемники оказываются пешками в грандиозном плане отмщения. С врагами, возникающими на его пути тогда, когда это нужно самому Риддику, он начинает поход во имя мести, чтобы в конечном счете вернуться на родную Фурию и спасти ее от уничтожения.--Качество: DVDRip-AVC
Контейнер: MKV
Видео кодек: AVC
Аудио кодек: AC3
Видео: AVC, 1024x432 (2.35:1), 2100 kbps, 29,970 fps, 0,158 bpp
Аудио: / AC3 / 2.0 / 48 kHz / 224 kbps / 16 bit -Рип: and77200-

Рейтинг

6.70 (32 859) 6.684 (17 157)

Media Info

General
Unique ID : 214398619264493311378396093562659128209 (0xA14BAC0DF01EEFE4B221C068CF25C391)
Complete name : G:\Фильмы\Риддик.2013.DVDRip-AVC.mkv
Format : Matroska
Format version : Version 4 / Version 2
File size : 1.93 GiB
Duration : 1h 58mn
Overall bit rate : 2 326 Kbps
Encoded date : UTC 2013-12-05 17:36:54
Writing application : mkvmerge v6.4.1 ('Omega Point') built on Sep 16 2013 22:05:10
Writing library : libebml v1.3.0 + libmatroska v1.4.1
Video
ID : 1
Format : AVC
Format/Info : Advanced Video Codec
Format profile : [url=mailto:[email protected]][email protected][/url]
Format settings, CABAC : Yes
Format settings, ReFrames : 10 frames
Codec ID : V_MPEG4/ISO/AVC
Duration : 1h 58mn
Bit rate : 2 100 Kbps
Width : 1 024 pixels
Height : 432 pixels
Display aspect ratio : 2.35:1
Frame rate mode : Constant
Frame rate : 29.970 fps
Color space : YUV
Chroma subsampling : 4:2:0
Bit depth : 8 bits
Scan type : Progressive
Bits/(Pixel*Frame) : 0.158
Stream size : 1.70 GiB (88%)
Writing library : x264 core 124 r2197M 69a0443
Encoding settings : cabac=1 / ref=11 / deblock=1:0:0 / analyse=0x3:0x133 / me=umh / subme=9 / psy=1 / psy_rd=1.00:0.20 / mixed_ref=1 / me_range=11 / chroma_me=1 / trellis=0 / 8x8dct=1 / cqm=0 / deadzone=21,11 / fast_pskip=1 / chroma_qp_offset=-2 / threads=2 / sliced_threads=0 / nr=0 / decimate=1 / interlaced=0 / bluray_compat=0 / constrained_intra=0 / bframes=11 / b_pyramid=1 / b_adapt=0 / b_bias=0 / direct=3 / weightb=1 / open_gop=0 / weightp=0 / keyint=290 / keyint_min=29 / scenecut=40 / intra_refresh=0 / rc_lookahead=40 / rc=2pass / mbtree=1 / bitrate=2100 / ratetol=1.0 / qcomp=0.60 / qpmin=10 / qpmax=51 / qpstep=4 / cplxblur=20.0 / qblur=0.5 / ip_ratio=1.40 / aq=1:1.00
Default : Yes
Forced : No
Audio
ID : 2
Format : AC-3
Format/Info : Audio Coding 3
Mode extension : CM (complete main)
Format settings, Endianness : Big
Codec ID : A_AC3
Duration : 1h 58mn
Bit rate mode : Constant
Bit rate : 224 Kbps
Channel count : 2 channels
Channel positions : Front: L R
Sampling rate : 48.0 KHz
Bit depth : 16 bits
Compression mode : Lossy
Stream size : 190 MiB (10%)
Language : Russian
Default : Yes
Forced : No

Скриншоты

Создавать темы 31-Янв-2016 13:56 (спустя 2 года 1 месяц)

Топик был перенесен из форума Зарубежные Новинки (HD*Rip/LQ, DVDRip) в форум Зарубежные Фильмы (HD*Rip/LQ, DVDRip, SATRip, VHSRip)
T_O_M
Яндекс.Метрика
Рейтинг@Mail.ru