(Psychedelic Rock) Pink Floyd - Spaceball Ricochet (Live Boston Gardens, Boston 1975) (2CD) - 1975 [APE, image+.cue, lossless]

 

Создавать темы 06-Июн-2015 11:57

-Pink Floyd / Spaceball Ricochet (Live Boston Gardens, Boston 1975) (2CD)-- Год издания: 1975
Страна: UK
Жанр: Psychedelic Rock
Продолжительность: 02:36:10-Лейбл издания: Pioneer Sound Research
Страна-выпуска диска: EU
Номер по каталогу: PSR CD 567893-2
Формат: APE
Битрейт аудио: lossless
Тип рипа: image+.cue
Наличие сканов в содержимом раздачи: да
--

Трэклист

CD 1 | 01:19:52

01. Raving And Drooling (09:27)
02. You Got Be Crazy (12:54)
03. Shine On You Crazy Diamond (1-4) (12:07)
04. Have A Cigar (05:02)
05. Shine On You Crazy Diamond 5-9 (09:48)
06. Speak To Me (03:17)
07. Breathe (02:45)
08. On The Run (04:44)
09. Time (06:10)
10. The Great Gig In The Sky (05:48)
11. Money (07:54)

CD 2 | 01:16:19

01. Us And Them (07:06)
02. Any Colur You Like (08:22)
03. Brain Damage (03:52)
04. Eclipse (01:59)
05. Echoes (21:37)
06. A Saucerful Of Secrets (13:33)
07. Shine On You Crazy Diamond (06:37)
08. One Of These Days 1 (04:33)
09. One Of These Days 2 (06:28)
10. Here Comes Santa (02:15)
--

Лог создания рипа

CD 1

Exact Audio Copy V0.99 prebeta 5 from 4. May 2009
Отчёт EAC об извлечении, выполненном 15. января 2010, 22:26
Pink Floyd - Spaceball Ricochet CD1 / Spaceball Ricochet (Live Boston Gardens 1975) CD1
Дисковод: _NEC    DVD_RW ND-3520A   Adapter: 1  ID: 1
Режим чтения                 : Достоверность
Использование точного потока : Да
Отключение кэша аудио        : Да
Использование указателей C2  : Нет
Коррекция смещения при чтении                     : 48
Способность читать области Lead-in и Lead-out     : Нет
Заполнение пропущенных сэмплов тишиной            : Да
Удаление блоков с тишиной в начале и конце        : Нет
При вычислениях CRC использовались нулевые сэмплы : Да
Интерфейс                                         : Встроенный Win32-интерфейс для Win NT/2000
Выходной формат : Внутренние WAV-операции
Формат сэмплов  : 44.100 Гц; 16 бит; стерео
TOC извлечённого CD
     Трек |   Старт  | Длительность | Начальный сектор | Конечный сектор
    ---------------------------------------------------------------------
       1  |  0:00.00 |    9:26.44   |           0      |      42493
       2  |  9:26.44 |   12:53.18   |       42494      |     100486
       3  | 22:19.62 |   12:06.47   |      100487      |     154983
       4  | 34:26.34 |    5:01.49   |      154984      |     177607
       5  | 39:28.08 |    9:47.71   |      177608      |     221703
       6  | 49:16.04 |    3:16.08   |      221704      |     236411
       7  | 52:32.12 |    2:44.36   |      236412      |     248747
       8  | 55:16.48 |    4:44.00   |      248748      |     270047
       9  | 60:00.48 |    6:09.25   |      270048      |     297747
      10  | 66:09.73 |    5:47.12   |      297748      |     323784
      11  | 71:57.10 |    7:53.68   |      323785      |     359327
Характеристики диапазона извлечения и сообщения об ошибках
Выбранный диапазон
     Имя файла D:\MUSIC 1\Pink Floyd - SPACEBALL RICOCHET (Live Boston Gardens 1975)\CD 1\Pink Floyd - Spaceball Ricochet CD1 - Spaceball Ricochet (Live Boston Gardens 1975) CD1.wav
     Пиковый уровень 100.0 %
     Качество диапазона 99.9 %
     CRC копии 9F978F16
     Копирование... OK
Ошибок не произошло
AccurateRip: сводка
Трек  1  нет в базе данных
Трек  2  нет в базе данных
Трек  3  нет в базе данных
Трек  4  нет в базе данных
Трек  5  нет в базе данных
Трек  6  нет в базе данных
Трек  7  нет в базе данных
Трек  8  нет в базе данных
Трек  9  нет в базе данных
Трек 10  нет в базе данных
Трек 11  нет в базе данных
Ни одного трека нет в базе AccurateRip
Конец отчёта

CD 2

Exact Audio Copy V0.99 prebeta 5 from 4. May 2009
Отчёт EAC об извлечении, выполненном 15. января 2010, 22:40
Pink Floyd - Spaceball Ricochet (Live Boston Gardens 1975) CD2 / Live Boston Gardens 1975 CD2
Дисковод: _NEC    DVD_RW ND-3520A   Adapter: 1  ID: 1
Режим чтения                 : Достоверность
Использование точного потока : Да
Отключение кэша аудио        : Да
Использование указателей C2  : Нет
Коррекция смещения при чтении                     : 48
Способность читать области Lead-in и Lead-out     : Нет
Заполнение пропущенных сэмплов тишиной            : Да
Удаление блоков с тишиной в начале и конце        : Нет
При вычислениях CRC использовались нулевые сэмплы : Да
Интерфейс                                         : Встроенный Win32-интерфейс для Win NT/2000
Выходной формат : Внутренние WAV-операции
Формат сэмплов  : 44.100 Гц; 16 бит; стерео
TOC извлечённого CD
     Трек |   Старт  | Длительность | Начальный сектор | Конечный сектор
    ---------------------------------------------------------------------
       1  |  0:00.00 |    7:05.70   |           0      |      31944
       2  |  7:05.70 |    8:21.04   |       31945      |      69523
       3  | 15:26.74 |    3:51.65   |       69524      |      86913
       4  | 19:18.64 |    1:58.72   |       86914      |      95835
       5  | 21:17.61 |   21:36.03   |       95836      |     193038
       6  | 42:53.64 |   13:32.23   |      193039      |     253961
       7  | 56:26.12 |    6:36.72   |      253962      |     283733
       8  | 63:03.09 |    4:32.60   |      283734      |     304193
       9  | 67:35.69 |    6:27.51   |      304194      |     333269
      10  | 74:03.45 |    2:14.33   |      333270      |     343352
Характеристики диапазона извлечения и сообщения об ошибках
Выбранный диапазон
     Имя файла D:\MUSIC 1\Pink Floyd - SPACEBALL RICOCHET (Live Boston Gardens 1975)\CD 2\Pink Floyd - Spaceball Ricochet (Live Boston Gardens 1975) CD2 - Live Boston Gardens 1975 CD2.wav
     Пиковый уровень 100.0 %
     Качество диапазона 100.0 %
     CRC копии 2A606508
     Копирование... OK
Ошибок не произошло
AccurateRip: сводка
Трек  1  нет в базе данных
Трек  2  нет в базе данных
Трек  3  нет в базе данных
Трек  4  нет в базе данных
Трек  5  нет в базе данных
Трек  6  нет в базе данных
Трек  7  нет в базе данных
Трек  8  нет в базе данных
Трек  9  нет в базе данных
Трек 10  нет в базе данных
Ни одного трека нет в базе AccurateRip
Конец отчёта

Индексная карта (non-compilant .cue)

CD 1

REM DISCID 9E12B70B
REM COMMENT "ExactAudioCopy v0.99pb5"
PERFORMER "Pink Floyd - Spaceball Ricochet CD1"
TITLE "Spaceball Ricochet (Live Boston Gardens 1975) CD1"
FILE "Pink Floyd - Spaceball Ricochet CD1 - Spaceball Ricochet (Live Boston Gardens 1975) CD1.wav" WAVE
  TRACK 01 AUDIO
    TITLE "01 Raving And Drooling"
    PERFORMER "Pink Floyd - Spaceball Ricochet CD1"
    FLAGS DCP
    INDEX 01 00:00:00
  TRACK 02 AUDIO
    TITLE "02 You Got Be Crazy"
    PERFORMER "Pink Floyd - Spaceball Ricochet CD1"
    FLAGS DCP
    INDEX 00 09:24:44
    INDEX 01 09:26:44
  TRACK 03 AUDIO
    TITLE "03 Shine On You Crazy Diamond (1-4)"
    PERFORMER "Pink Floyd - Spaceball Ricochet CD1"
    FLAGS DCP
    INDEX 00 22:17:62
    INDEX 01 22:19:62
  TRACK 04 AUDIO
    TITLE "04 Have A Cigar"
    PERFORMER "Pink Floyd - Spaceball Ricochet CD1"
    FLAGS DCP
    INDEX 00 34:24:34
    INDEX 01 34:26:34
  TRACK 05 AUDIO
    TITLE "05 Shine On You Crazy Diamond 5-9"
    PERFORMER "Pink Floyd - Spaceball Ricochet CD1"
    FLAGS DCP
    INDEX 00 39:26:08
    INDEX 01 39:28:08
  TRACK 06 AUDIO
    TITLE "06 Speak To Me"
    PERFORMER "Pink Floyd - Spaceball Ricochet CD1"
    FLAGS DCP
    INDEX 00 49:14:04
    INDEX 01 49:16:04
  TRACK 07 AUDIO
    TITLE "07 Breathe"
    PERFORMER "Pink Floyd - Spaceball Ricochet CD1"
    FLAGS DCP
    INDEX 00 52:30:12
    INDEX 01 52:32:12
  TRACK 08 AUDIO
    TITLE "08 On The Run"
    PERFORMER "Pink Floyd - Spaceball Ricochet CD1"
    FLAGS DCP
    INDEX 00 55:14:48
    INDEX 01 55:16:48
  TRACK 09 AUDIO
    TITLE "09 Time"
    PERFORMER "Pink Floyd - Spaceball Ricochet CD1"
    FLAGS DCP
    INDEX 00 59:58:48
    INDEX 01 60:00:48
  TRACK 10 AUDIO
    TITLE "10 The Great Gig In The Sky"
    PERFORMER "Pink Floyd - Spaceball Ricochet CD1"
    FLAGS DCP
    INDEX 00 66:07:73
    INDEX 01 66:09:73
  TRACK 11 AUDIO
    TITLE "11 Money"
    PERFORMER "Pink Floyd - Spaceball Ricochet CD1"
    FLAGS DCP
    INDEX 00 71:55:10
    INDEX 01 71:57:10

CD 2

REM DISCID 9E11E20A
REM COMMENT "ExactAudioCopy v0.99pb5"
PERFORMER "Pink Floyd - Spaceball Ricochet (Live Boston Gardens 1975) CD2"
TITLE "Live Boston Gardens 1975 CD2"
FILE "Pink Floyd - Spaceball Ricochet (Live Boston Gardens 1975) CD2 - Live Boston Gardens 1975 CD2.wav" WAVE
  TRACK 01 AUDIO
    TITLE "01 Us And Them"
    PERFORMER "Pink Floyd - Spaceball Ricochet (Live Boston Gardens 1975) CD2"
    FLAGS DCP
    INDEX 01 00:00:00
  TRACK 02 AUDIO
    TITLE "02 Any Colur You Like"
    PERFORMER "Pink Floyd - Spaceball Ricochet (Live Boston Gardens 1975) CD2"
    FLAGS DCP
    INDEX 00 07:03:70
    INDEX 01 07:05:70
  TRACK 03 AUDIO
    TITLE "03 Brain Damage"
    PERFORMER "Pink Floyd - Spaceball Ricochet (Live Boston Gardens 1975) CD2"
    FLAGS DCP
    INDEX 00 15:24:74
    INDEX 01 15:26:74
  TRACK 04 AUDIO
    TITLE "04 Eclipse"
    PERFORMER "Pink Floyd - Spaceball Ricochet (Live Boston Gardens 1975) CD2"
    FLAGS DCP
    INDEX 00 19:16:64
    INDEX 01 19:18:64
  TRACK 05 AUDIO
    TITLE "05 Echoes"
    PERFORMER "Pink Floyd - Spaceball Ricochet (Live Boston Gardens 1975) CD2"
    FLAGS DCP
    INDEX 00 21:15:61
    INDEX 01 21:17:61
  TRACK 06 AUDIO
    TITLE "06 A Saucerful Of Secrets"
    PERFORMER "Pink Floyd - Spaceball Ricochet (Live Boston Gardens 1975) CD2"
    FLAGS DCP
    INDEX 00 42:51:64
    INDEX 01 42:53:64
  TRACK 07 AUDIO
    TITLE "07 Shine On You Crazy Diamond"
    PERFORMER "Pink Floyd - Spaceball Ricochet (Live Boston Gardens 1975) CD2"
    FLAGS DCP
    INDEX 00 56:24:12
    INDEX 01 56:26:12
  TRACK 08 AUDIO
    TITLE "08 One Of These Days 1"
    PERFORMER "Pink Floyd - Spaceball Ricochet (Live Boston Gardens 1975) CD2"
    FLAGS DCP
    INDEX 00 63:01:09
    INDEX 01 63:03:09
  TRACK 09 AUDIO
    TITLE "09 One Of These Days 2"
    PERFORMER "Pink Floyd - Spaceball Ricochet (Live Boston Gardens 1975) CD2"
    FLAGS DCP
    INDEX 00 67:33:69
    INDEX 01 67:35:69
  TRACK 10 AUDIO
    TITLE "10 Here Comes Santa"
    PERFORMER "Pink Floyd - Spaceball Ricochet (Live Boston Gardens 1975) CD2"
    FLAGS DCP
    INDEX 00 74:01:45
    INDEX 01 74:03:45

Лог Audiochecker

CD 1

AUDIOCHECKER v2.0 beta (build 457) - by Dester - [email protected]
~~~~~~~~~~~~~~~~~~~~~~~~~~~~~~~~~~
Started at: четверг, 04. 06. 2015. - 14:29.07
1 file found
1 -===- D:\Torrent files\Pink Floyd - SPACEBALL RICOCHET (Live Boston Gardens, Boston 1975)\CD 1\Pink Floyd - Spaceball Ricochet CD1 - Spaceball Ricochet (Live Boston Gardens 1975) CD1.ape
  Extracted successfully
  Conclusion: this track is CDDA with probability 100%
  Tempfile successfully deleted.
Finished at: четверг, 04. 06. 2015. - 14:33.34 (operation time: 0:04.27)

CD 2

AUDIOCHECKER v2.0 beta (build 457) - by Dester - [email protected]
~~~~~~~~~~~~~~~~~~~~~~~~~~~~~~~~~~
Started at: четверг, 04. 06. 2015. - 14:33.55
1 file found
1 -===- D:\Torrent files\Pink Floyd - SPACEBALL RICOCHET (Live Boston Gardens, Boston 1975)\CD 2\Pink Floyd - Spaceball Ricochet (Live Boston Gardens 1975) CD2 - Live Boston Gardens 1975 CD2.ape
  Extracted successfully
  Conclusion: this track is CDDA with probability 99%
  Tempfile successfully deleted.
Finished at: четверг, 04. 06. 2015. - 14:38.06 (operation time: 0:04.11)
--Не забываем говорить
Яндекс.Метрика
Рейтинг@Mail.ru