Бёрдмэн / Birdman (2014) BDRip-AVC от R.G. HD-Films | 60 fps

 

Создавать темы 30-Июн-2015 16:35

-Название: Бёрдмэн
Оригинальное название: Birdman: Or (The Unexpected Virtue of Ignorance)
Год выпуска: 2014
Страна: США
Жанр: драма, комедия
Продолжительность: 01:59:17
Перевод: Дубляж
Субтитры: русские (Форсированные), русские (Полные), английские (Полные)-Режиссер: Алехандро Гонсалес Иньярриту / Alejandro González Iñárritu-В ролях: Майкл Китон (Riggan), Эдвард Нортон (Mike), Эмма Стоун (Sam), Наоми Уоттс (Lesley), Зак Галифианакис (Jake), Андреа Райзборо (Laura), Эми Райан (Sylvia), Линдси Дункан (Tabitha), Дэмиэн Янг (Gabriel), Джереми Шамос (Ralph), Кенни Чин (Korean Grocer), Жамаль Гаррисон-Лоу (Stagehand (Daniel))-Описание:
В центре сюжета бывший актер, некогда сыгравший роль популярного супергероя Бёрдмэна, и теперь, переступая через свое эго, он решает принять участие в новой бродвейской постановке с целью вернуть себе былую славу, блеск и величие.-
Рейтинг

imdb.com: 7.90 (278 087)
MPAA: R - Лицам до 17 лет обязательно присутствие взрослого-Качество: BDRip-AVC 60fps
Формат: MKV
Видео кодек: AVC
Аудио кодек:AC3
Видео: AVC, 1024x552 (1.855), 4100 kbps, 59,940 fps, 0,121 bpp
Аудио: русский / AC3 / 5.1 / 48 kHz / 640 kbps / 16 bit |Дубляж|
Навигация по главам: есть- -

MI

General
Unique ID : 175559627112510402273837998143832940189 (0x84138DE5D3EB7AD3AF7578B94C7D5E9D)
Format : Matroska
Format version : Version 4 / Version 2
File size : 3.95 GiB
Duration : 1h 59mn
Overall bit rate : 4 742 Kbps
Movie name : Tiberiumsun69
Encoded date : UTC 2015-06-30 12:47:20
Writing application : mkvmerge v7.9.0 ('Birds') 64bit
Writing library : libebml v1.3.1 + libmatroska v1.4.2
Attachment : Yes
Video
ID : 1
Format : AVC
Format/Info : Advanced Video Codec
Format profile : [email protected]
Format settings, CABAC : Yes
Format settings, ReFrames : 4 frames
Codec ID : V_MPEG4/ISO/AVC
Duration : 1h 59mn
Bit rate : 4 100 Kbps
Width : 1 024 pixels
Height : 552 pixels
Display aspect ratio : 1.855
Frame rate : 59.940 fps
Color space : YUV
Chroma subsampling : 4:2:0
Bit depth : 8 bits
Scan type : Progressive
Bits/(Pixel*Frame) : 0.121
Stream size : 3.34 GiB (85%)
Title : Tiberiumsun69
Writing library : x264 core 146 r2538 121396c
Encoding settings : cabac=1 / ref=4 / deblock=1:0:0 / analyse=0x3:0x113 / me=umh / subme=9 / psy=1 / psy_rd=1.00:0.10 / mixed_ref=1 / me_range=32 / chroma_me=1 / trellis=2 / 8x8dct=1 / cqm=0 / deadzone=21,11 / fast_pskip=0 / chroma_qp_offset=-3 / threads=12 / lookahead_threads=3 / sliced_threads=0 / nr=0 / decimate=1 / interlaced=0 / bluray_compat=0 / constrained_intra=0 / bframes=16 / b_pyramid=2 / b_adapt=2 / b_bias=0 / direct=3 / weightb=1 / open_gop=0 / weightp=2 / keyint=600 / keyint_min=59 / scenecut=40 / intra_refresh=0 / rc_lookahead=60 / rc=2pass / mbtree=1 / bitrate=4100 / ratetol=1.0 / qcomp=0.60 / qpmin=0 / qpmax=69 / qpstep=4 / cplxblur=20.0 / qblur=0.5 / vbv_maxrate=50000 / vbv_bufsize=62500 / nal_hrd=none / filler=0 / ip_ratio=1.40 / aq=1:1.00
Language : English
Default : Yes
Forced : No
Audio
ID : 2
Format : AC-3
Format/Info : Audio Coding 3
Mode extension : CM (complete main)
Codec ID : A_AC3
Duration : 1h 59mn
Bit rate mode : Constant
Bit rate : 640 Kbps
Channel(s) : 6 channels
Channel positions : Front: L C R, Side: L R, LFE
Sampling rate : 48.0 KHz
Bit depth : 16 bits
Compression mode : Lossy
Stream size : 546 MiB (13%)
Title : Дубляж
Language : Russian
Default : Yes
Forced : No
Text #1
ID : 3
Format : UTF-8
Codec ID : S_TEXT/UTF8
Codec ID/Info : UTF-8 Plain Text
Title : Форсированные
Language : Russian
Default : Yes
Forced : No
Text #2
ID : 4
Format : UTF-8
Codec ID : S_TEXT/UTF8
Codec ID/Info : UTF-8 Plain Text
Title : Полные
Language : Russian
Default : No
Forced : No
Text #3
ID : 5
Format : UTF-8
Codec ID : S_TEXT/UTF8
Codec ID/Info : UTF-8 Plain Text
Title : Полные
Language : English
Default : No
Forced : No
Menu
00:00:00.000 : en:00:00:00.000
00:03:29.084 : en:00:03:29.084
00:07:33.828 : en:00:07:33.828
00:09:08.506 : en:00:09:08.506
00:12:39.384 : en:00:12:39.384
00:16:53.429 : en:00:16:53.429
00:19:07.146 : en:00:19:07.146
00:20:22.096 : en:00:20:22.096
00:25:21.186 : en:00:25:21.186
00:31:45.028 : en:00:31:45.028
00:36:09.834 : en:00:36:09.834
00:37:12.772 : en:00:37:12.772
00:42:09.444 : en:00:42:09.444
00:48:49.802 : en:00:48:49.802
00:53:30.541 : en:00:53:30.541
00:58:31.341 : en:00:58:31.341
01:03:17.085 : en:01:03:17.085
01:08:29.147 : en:01:08:29.147
01:12:42.567 : en:01:12:42.567
01:17:01.450 : en:01:17:01.450
01:20:45.090 : en:01:20:45.090
01:25:13.984 : en:01:25:13.984
01:28:04.946 : en:01:28:04.946
01:33:22.472 : en:01:33:22.472
01:39:14.949 : en:01:39:14.949
01:43:10.726 : en:01:43:10.726
01:46:43.856 : en:01:46:43.856
01:52:16.855 : en:01:52:16.855

Скриншоты

Яндекс.Метрика
Рейтинг@Mail.ru