Одинокий голубь / Lonesome Dove (Саймон Уинсер)[1989,драма, приключения, вестерн, BDRip 720p] от HDClub

 

Создавать темы 12-Дек-2013 02:32

Информация о фильме
Название: Одинокий голубь
Оригинальное название: Lonesome Dove
Год выхода: 1989
Жанр: драма, приключения, вестерн
Режиссер: Саймон Уинсер
В ролях: Роберт Дювалл, Томми Ли Джонс, Дэнни Гловер, Дайан Лэйн, Роберт Урих, Фредерик Форрест, Д.Б. Суини, Рик Шродер, Анджелика Хьюстон, Крис Купер
О фильме:
Это потрясающе снятая сага о старом Западе, история любви и приключений Аугустуса МакКреа и Вудроу Колла — героев грандиозного эпоса. Техасские бродяги становятся партнерами и друзьями, помогающими друг другу переносить лишения, опасности, тяготы…
Это положило начало экранизаций Лэрри МакМертри, где действуют одни и те же главные герои. Цикл никак нельзя назвать сериалом, т.к. играют разные актеры и снимался он разными режиссерами. Неизменным оставалось одно - это звездный состав, поразительный уровень актерского мастерства, довольно много замечательных эпизодов и шикарная работа оператора.
Экранизация романа Лэрри МакМертри. Шестичасовую телевизионную ленту "ОДИНОКИЙ ГОЛУБЬ" американцы называют одним из лучших вестернов в истории кино

Страна: США
Продолжительность: 01:34:36 | 01:30:16 | 01:34:02 | 01:33:56
Перевод: Профессиональный (двухголосый закадровый)
Файл
Кодек: x264
Качество: BDRip 720p CtrlHD
Видео: 1280x720 at 23.976 fps, ~6000 Kbps avg
Звук:
Аудио: Russian: 48 kHz, AC3, 2 (L,R) ch, ~192.00 kbps avg |Двухголосый закадровый|
Аудио 2: English: 48 kHz, AC3, 3/2 (L,C,R,l,r) + LFE ch, ~448.00 kbps avg
Субтитры: Английские

MI

Код:
Общее
Уникальный идентификатор : 175956795989886848213663538255895831834 (0x84600BD5D476BA07B75634E72BC1A51A)
Полное имя : Lonesome.Dove.1989.720p.BluRay.4Series.HDCLUBLonesome.Dove.1989.PART.1.720p.BluRay.RusEng.HDCLUB.mkv
Формат : Matroska
Версия формата : Version 1
Размер файла : 4,37 Гбайт
Продолжительность : 1 ч. 34 м.
Общий поток : 6613 Кбит/сек
Название фильма : Lonesome Dove (1989) - Release for HDClub
Дата кодирования : UTC 2008-11-30 17:08:17
Программа кодирования : mkvmerge v2.1.0 ('Another Place To Fall') built on Aug 19 2007 13:40:07
Библиотека кодирования : libebml v0.7.7 + libmatroska v0.8.1
Видео
Идентификатор : 1
Формат : AVC
Формат/Информация : Advanced Video Codec
Профиль формата : [email protected]
Параметр CABAC формата : Да
Параметр ReFrames формата : 5 кадров
Идентификатор кодека : V_MPEG4/ISO/AVC
Продолжительность : 1 ч. 34 м.
Битрейт : 5970 Кбит/сек
Ширина : 1280 пикселей
Высота : 720 пикселей
Соотношение сторон : 16:9
Режим частоты кадров : Постоянный
Частота кадров : 23,976 кадра/сек
Цветовое пространство : YUV
Субдискретизация насыщенности : 4:2:0
Битовая глубина : 8 бит
Тип развёртки : Прогрессивная
Бит/(Пиксели*Кадры) : 0.270
Размер потока : 3,86 Гбайт (88%)
Заголовок : Release for HDClub
Библиотека кодирования : x264 core 61 r938M 9881ffd
Настройки программы : cabac=1 / ref=5 / deblock=1:-2:-2 / analyse=0x1:0x111 / me=umh / subme=6 / psy_rd=1.0:0.0 / brdo=1 / mixed_ref=1 / me_range=16 / chroma_me=1 / trellis=0 / 8x8dct=0 / cqm=2 / deadzone=21,11 / chroma_qp_offset=-2 / threads=6 / nr=0 / decimate=0 / mbaff=0 / bframes=3 / b_pyramid=1 / b_adapt=1 / b_bias=0 / direct=3 / wpredb=1 / bime=1 / keyint=250 / keyint_min=25 / scenecut=40(pre) / rc=2pass / bitrate=5970 / ratetol=1.0 / rceq='blurCplx^(1-qComp)' / qcomp=1.00 / qpmin=10 / qpmax=51 / qpstep=4 / cplxblur=20.0 / qblur=0.5 / ip_ratio=1.40 / pb_ratio=1.30 / aq=2:1.00
Язык : English
Default : Да
Forced : Нет
Аудио #1
Идентификатор : 2
Формат : AC-3
Формат/Информация : Audio Coding 3
Расширение режима : CM (complete main)
Параметр Endianness формата : Big
Идентификатор кодека : A_AC3
Продолжительность : 1 ч. 34 м.
Вид битрейта : Постоянный
Битрейт : 192 Кбит/сек
Каналы : 2 канала
Расположение каналов : Front: L R
Частота : 48,0 КГц
Битовая глубина : 16 бит
Метод сжатия : С потерями
Размер потока : 130 Мбайт (3%)
Заголовок : AC3 2.0 192k Mnogogoloska
Язык : Russian
Default : Да
Forced : Нет
Аудио #2
Идентификатор : 3
Формат : AC-3
Формат/Информация : Audio Coding 3
Расширение режима : CM (complete main)
Параметр Endianness формата : Big
Идентификатор кодека : A_AC3
Продолжительность : 1 ч. 34 м.
Вид битрейта : Постоянный
Битрейт : 448 Кбит/сек
Каналы : 6 каналов
Расположение каналов : Front: L C R, Side: L R, LFE
Частота : 48,0 КГц
Битовая глубина : 16 бит
Метод сжатия : С потерями
Размер потока : 303 Мбайт (7%)
Заголовок : AC3 5.1 448k
Язык : English
Default : Нет
Forced : Нет
Текст
Идентификатор : 4
Формат : UTF-8
Идентификатор кодека : S_TEXT/UTF8
Идентификатор кодека/Информация : UTF-8 Plain Text
Язык : English
Default : Да
Forced : Нет
Общее
Уникальный идентификатор : 197680978382288907743954715025512149035 (0x94B7F8B8D3778F7D8D42CCB8497D302B)
Полное имя : Lonesome.Dove.1989.720p.BluRay.4Series.HDCLUBLonesome.Dove.1989.PART.2.720p.BluRay.RusEng.HDCLUB.mkv
Формат : Matroska
Версия формата : Version 1
Размер файла : 4,37 Гбайт
Продолжительность : 1 ч. 30 м.
Общий поток : 6931 Кбит/сек
Название фильма : Lonesome Dove (1989) - Release for HDClub
Дата кодирования : UTC 2008-11-30 17:59:09
Программа кодирования : mkvmerge v2.1.0 ('Another Place To Fall') built on Aug 19 2007 13:40:07
Библиотека кодирования : libebml v0.7.7 + libmatroska v0.8.1
Видео
Идентификатор : 1
Формат : AVC
Формат/Информация : Advanced Video Codec
Профиль формата : [email protected]
Параметр CABAC формата : Да
Параметр ReFrames формата : 5 кадров
Идентификатор кодека : V_MPEG4/ISO/AVC
Продолжительность : 1 ч. 30 м.
Битрейт : 6288 Кбит/сек
Ширина : 1280 пикселей
Высота : 720 пикселей
Соотношение сторон : 16:9
Режим частоты кадров : Постоянный
Частота кадров : 23,976 кадра/сек
Цветовое пространство : YUV
Субдискретизация насыщенности : 4:2:0
Битовая глубина : 8 бит
Тип развёртки : Прогрессивная
Бит/(Пиксели*Кадры) : 0.285
Размер потока : 3,88 Гбайт (89%)
Заголовок : Release for HDClub
Библиотека кодирования : x264 core 61 r938M 9881ffd
Настройки программы : cabac=1 / ref=5 / deblock=1:-2:-2 / analyse=0x1:0x111 / me=umh / subme=6 / psy_rd=1.0:0.0 / brdo=1 / mixed_ref=1 / me_range=16 / chroma_me=1 / trellis=0 / 8x8dct=0 / cqm=2 / deadzone=21,11 / chroma_qp_offset=-2 / threads=6 / nr=0 / decimate=0 / mbaff=0 / bframes=3 / b_pyramid=1 / b_adapt=1 / b_bias=0 / direct=3 / wpredb=1 / bime=1 / keyint=250 / keyint_min=25 / scenecut=40(pre) / rc=2pass / bitrate=6288 / ratetol=1.0 / rceq='blurCplx^(1-qComp)' / qcomp=1.00 / qpmin=10 / qpmax=51 / qpstep=4 / cplxblur=20.0 / qblur=0.5 / ip_ratio=1.40 / pb_ratio=1.30 / aq=2:1.00
Язык : English
Default : Да
Forced : Нет
Аудио #1
Идентификатор : 2
Формат : AC-3
Формат/Информация : Audio Coding 3
Расширение режима : CM (complete main)
Параметр Endianness формата : Big
Идентификатор кодека : A_AC3
Продолжительность : 1 ч. 30 м.
Вид битрейта : Постоянный
Битрейт : 192 Кбит/сек
Каналы : 2 канала
Расположение каналов : Front: L R
Частота : 48,0 КГц
Битовая глубина : 16 бит
Метод сжатия : С потерями
Размер потока : 124 Мбайт (3%)
Заголовок : AC3 2.0 192k Mnogogoloska
Язык : Russian
Default : Да
Forced : Нет
Аудио #2
Идентификатор : 3
Формат : AC-3
Формат/Информация : Audio Coding 3
Расширение режима : CM (complete main)
Параметр Endianness формата : Big
Идентификатор кодека : A_AC3
Продолжительность : 1 ч. 30 м.
Вид битрейта : Постоянный
Битрейт : 448 Кбит/сек
Каналы : 6 каналов
Расположение каналов : Front: L C R, Side: L R, LFE
Частота : 48,0 КГц
Битовая глубина : 16 бит
Метод сжатия : С потерями
Размер потока : 289 Мбайт (6%)
Заголовок : AC3 5.1 448k
Язык : English
Default : Нет
Forced : Нет
Текст
Идентификатор : 4
Формат : UTF-8
Идентификатор кодека : S_TEXT/UTF8
Идентификатор кодека/Информация : UTF-8 Plain Text
Язык : English
Default : Да
Forced : Нет
Общее
Уникальный идентификатор : 232926646726210044200613817938398790545 (0xAF3C0A562F3D1A47BAACEBF83AA5C391)
Полное имя : Lonesome.Dove.1989.720p.BluRay.4Series.HDCLUBLonesome.Dove.1989.PART.3.720p.BluRay.RusEng.HDCLUB.mkv
Формат : Matroska
Версия формата : Version 1
Размер файла : 4,37 Гбайт
Продолжительность : 1 ч. 34 м.
Общий поток : 6654 Кбит/сек
Название фильма : Lonesome Dove (1989) - Release for HDClub
Дата кодирования : UTC 2008-12-01 11:48:20
Программа кодирования : mkvmerge v2.1.0 ('Another Place To Fall') built on Aug 19 2007 13:40:07
Библиотека кодирования : libebml v0.7.7 + libmatroska v0.8.1
Видео
Идентификатор : 1
Формат : AVC
Формат/Информация : Advanced Video Codec
Профиль формата : [email protected]
Параметр CABAC формата : Да
Параметр ReFrames формата : 5 кадров
Идентификатор кодека : V_MPEG4/ISO/AVC
Продолжительность : 1 ч. 34 м.
Битрейт : 6010 Кбит/сек
Ширина : 1280 пикселей
Высота : 720 пикселей
Соотношение сторон : 16:9
Режим частоты кадров : Постоянный
Частота кадров : 23,976 кадра/сек
Цветовое пространство : YUV
Субдискретизация насыщенности : 4:2:0
Битовая глубина : 8 бит
Тип развёртки : Прогрессивная
Бит/(Пиксели*Кадры) : 0.272
Размер потока : 3,86 Гбайт (88%)
Заголовок : Release for HDClub
Библиотека кодирования : x264 core 61 r938M 9881ffd
Настройки программы : cabac=1 / ref=5 / deblock=1:-2:-2 / analyse=0x1:0x111 / me=umh / subme=6 / psy_rd=1.0:0.0 / brdo=1 / mixed_ref=1 / me_range=16 / chroma_me=1 / trellis=0 / 8x8dct=0 / cqm=2 / deadzone=21,11 / chroma_qp_offset=-2 / threads=6 / nr=0 / decimate=0 / mbaff=0 / bframes=3 / b_pyramid=1 / b_adapt=1 / b_bias=0 / direct=3 / wpredb=1 / bime=1 / keyint=250 / keyint_min=25 / scenecut=40(pre) / rc=2pass / bitrate=6010 / ratetol=1.0 / rceq='blurCplx^(1-qComp)' / qcomp=1.00 / qpmin=10 / qpmax=51 / qpstep=4 / cplxblur=20.0 / qblur=0.5 / ip_ratio=1.40 / pb_ratio=1.30 / aq=2:1.00
Язык : English
Default : Да
Forced : Нет
Аудио #1
Идентификатор : 2
Формат : AC-3
Формат/Информация : Audio Coding 3
Расширение режима : CM (complete main)
Параметр Endianness формата : Big
Идентификатор кодека : A_AC3
Продолжительность : 1 ч. 34 м.
Вид битрейта : Постоянный
Битрейт : 192 Кбит/сек
Каналы : 2 канала
Расположение каналов : Front: L R
Частота : 48,0 КГц
Битовая глубина : 16 бит
Метод сжатия : С потерями
Размер потока : 129 Мбайт (3%)
Заголовок : AC3 2.0 192k Mnogogoloska
Язык : Russian
Default : Да
Forced : Нет
Аудио #2
Идентификатор : 3
Формат : AC-3
Формат/Информация : Audio Coding 3
Расширение режима : CM (complete main)
Параметр Endianness формата : Big
Идентификатор кодека : A_AC3
Продолжительность : 1 ч. 34 м.
Вид битрейта : Постоянный
Битрейт : 448 Кбит/сек
Каналы : 6 каналов
Расположение каналов : Front: L C R, Side: L R, LFE
Частота : 48,0 КГц
Битовая глубина : 16 бит
Метод сжатия : С потерями
Размер потока : 301 Мбайт (7%)
Заголовок : AC3 5.1 448k
Язык : English
Default : Нет
Forced : Нет
Текст
Идентификатор : 4
Формат : UTF-8
Идентификатор кодека : S_TEXT/UTF8
Идентификатор кодека/Информация : UTF-8 Plain Text
Язык : English
Default : Да
Forced : Нет
Общее
Уникальный идентификатор : 192056564611376062318508430283943125252 (0x907CBFB69B843052AE07C4634C732104)
Полное имя : Lonesome.Dove.1989.720p.BluRay.4Series.HDCLUBLonesome.Dove.1989.PART.4.720p.BluRay.RusEng.HDCLUB.mkv
Формат : Matroska
Версия формата : Version 1
Размер файла : 4,37 Гбайт
Продолжительность : 1 ч. 33 м.
Общий поток : 6658 Кбит/сек
Название фильма : Lonesome Dove (1989) - Release for HDClub
Дата кодирования : UTC 2008-12-01 12:41:41
Программа кодирования : mkvmerge v2.1.0 ('Another Place To Fall') built on Aug 19 2007 13:40:07
Библиотека кодирования : libebml v0.7.7 + libmatroska v0.8.1
Видео
Идентификатор : 1
Формат : AVC
Формат/Информация : Advanced Video Codec
Профиль формата : [email protected]
Параметр CABAC формата : Да
Параметр ReFrames формата : 5 кадров
Идентификатор кодека : V_MPEG4/ISO/AVC
Продолжительность : 1 ч. 33 м.
Битрейт : 6015 Кбит/сек
Ширина : 1280 пикселей
Высота : 720 пикселей
Соотношение сторон : 16:9
Режим частоты кадров : Постоянный
Частота кадров : 23,976 кадра/сек
Цветовое пространство : YUV
Субдискретизация насыщенности : 4:2:0
Битовая глубина : 8 бит
Тип развёртки : Прогрессивная
Бит/(Пиксели*Кадры) : 0.272
Размер потока : 3,86 Гбайт (88%)
Заголовок : Release for HDClub
Библиотека кодирования : x264 core 61 r938M 9881ffd
Настройки программы : cabac=1 / ref=5 / deblock=1:-2:-2 / analyse=0x1:0x111 / me=umh / subme=6 / psy_rd=1.0:0.0 / brdo=1 / mixed_ref=1 / me_range=16 / chroma_me=1 / trellis=0 / 8x8dct=0 / cqm=2 / deadzone=21,11 / chroma_qp_offset=-2 / threads=6 / nr=0 / decimate=0 / mbaff=0 / bframes=3 / b_pyramid=1 / b_adapt=1 / b_bias=0 / direct=3 / wpredb=1 / bime=1 / keyint=250 / keyint_min=25 / scenecut=40(pre) / rc=2pass / bitrate=6015 / ratetol=1.0 / rceq='blurCplx^(1-qComp)' / qcomp=1.00 / qpmin=10 / qpmax=51 / qpstep=4 / cplxblur=20.0 / qblur=0.5 / ip_ratio=1.40 / pb_ratio=1.30 / aq=2:1.00
Язык : English
Default : Да
Forced : Нет
Аудио #1
Идентификатор : 2
Формат : AC-3
Формат/Информация : Audio Coding 3
Расширение режима : CM (complete main)
Параметр Endianness формата : Big
Идентификатор кодека : A_AC3
Продолжительность : 1 ч. 33 м.
Вид битрейта : Постоянный
Битрейт : 192 Кбит/сек
Каналы : 2 канала
Расположение каналов : Front: L R
Частота : 48,0 КГц
Битовая глубина : 16 бит
Метод сжатия : С потерями
Размер потока : 129 Мбайт (3%)
Заголовок : AC3 2.0 192k Mnogogoloska
Язык : Russian
Default : Да
Forced : Нет
Аудио #2
Идентификатор : 3
Формат : AC-3
Формат/Информация : Audio Coding 3
Расширение режима : CM (complete main)
Параметр Endianness формата : Big
Идентификатор кодека : A_AC3
Продолжительность : 1 ч. 33 м.
Вид битрейта : Постоянный
Битрейт : 448 Кбит/сек
Каналы : 6 каналов
Расположение каналов : Front: L C R, Side: L R, LFE
Частота : 48,0 КГц
Битовая глубина : 16 бит
Метод сжатия : С потерями
Размер потока : 301 Мбайт (7%)
Заголовок : AC3 5.1 448k
Язык : English
Default : Нет
Forced : Нет
Текст
Идентификатор : 4
Формат : UTF-8
Идентификатор кодека : S_TEXT/UTF8
Идентификатор кодека/Информация : UTF-8 Plain Text
Язык : English
Default : Да
Forced : Нет

Скриншоты

Создавать темы 12-Дек-2013 13:43 (спустя 11 часов)

Топик был перенесен из форума Зарубежная Классика (HD*Rip/LQ, DVDRip, SATRip, VHSRip) в форум Зарубежная Классика (HD)
[email protected]
Яндекс.Метрика
Рейтинг@Mail.ru