33 квадратных метра [сезон 1, серий 15] (Виталий Бабенко, Константин Наумочкин, Петр Штейн, ...) [1997 г., комедия, TVRip]

 

Создавать темы 28-Июл-2015 06:28

--33 квадратных метра-- Год выпуска: 1997
Страна: Россия
Жанр: комедия
Продолжительность: серия ~ 26 мин.-Режиссер: Виталий Бабенко, Константин Наумочкин, Петр Штейн, ...
Сценарий: Александр Толоконников, Василий Антонов, Александр Бачило, ...-В ролях: Михаил Шац, Сергей Белоголовцев, Татьяна Лазарева, Павел Кабанов, Андрей Бочаров, Сергей Сивохо, Александр Толоконников, Василий Антонов, Олег Комаров, Маргарита Митрофанова...-Описание: Cериал о типичной российской семье Звездуновых: об инженере Сергее, мечтающем о смерти тёщи, о его жене Татьяне, чей брак — сплошная катастрофа, об их странноватом сыне Андрюше и о дворянке-коммунистке бабушке Кларе Захаровне.-Качество: TVRip
Формат: AVI
Видеокодек: DivX
Аудиокодек: AC3
Видео: 704x528 (1.33:1), 25 fps, DivX Codec 5.2.1 build 1338 ~2197 kbps avg, 0.24 bit/pixel
Аудио: 48 kHz, AC3 Dolby Digital, 2/0 (L,R) ch, ~256 kbps
--Список серий:
1. «Невеста Ира»
2. «Смазываем… двери»
3. «Перестановка холодильника»
4. «Участковый врач»
5. «Ах, эти школьные уроки!»
6. «Романтическое свидание»
7. «Армейские байки (23 февраля)»
8. «Приезд деверя»
9. «Поздравляем с 8-м марта»
10. «Андрюша едет в лагерь… пионерский!»
11. «Поездка в Багамы»
12. «По разные стороны баррикад»
13. «Половое воспитание»
14. «Визит подруги»
15. «Генеральная уборка»-

Доп. информация:

Это самое начало работы коллектива авторов над ставшим потом знаменитым сериалом 33 квадратных метра. Доступны 15 серий. Сериал выглядит пока несколько шероховатым, но основные черты характеров главных персонажей уже вырисовываются довольно ясно. Итак, в этом сезоне мы встречаемся впервые с Сергеем Геннадьевичем Звездуновым, Татьяной Звездуновой, тёщей Сергея Геннадьевича Кларой Захаровной и конечно со звездой сериала Андреем Звездуновым. В первом сезоне у Клары Захаровны есть… муж по имени… Дед! Его играет Василий Антонов… В этом сезоне также играет неотразимый Михаил Шац, он как настоящий мастер перевоплощений выступает под десятком масок. То он участковый врач, то сосед по лестничной площадке, то… действующий любовник Татьяны Звездуновой, то очередной дальний родственник Сергея Геннадьевича… Сергей Геннадьевич всю дорогу даёт неуклюжему Андрюше подзатыльники и пьёт водку, пиво, самогон, наливки, портвешок… попутно вспоминая тормозную жидкость! Андрюша непрерывно жрёт сухое «Zuko», Дед с Кларой Захаровной вспоминают боевую молодость (попутно выясняется, что Дед служил в полковом оркестре), смотрят «Санта-Барбару» и играют в «Морской бой», совместно доводя Сергея Геннадьевича до белого каления.
-

МедиаИнфо

Общее
Полное имя : D:\Торренты\33_kvadratnyh_metra\1_season_(1997)\1.avi
Формат : AVI
Формат/Информация : Audio Video Interleave
Размер файла : 125 Мбайт
Продолжительность : 7 м. 4 с.
Общий поток : 2464 Кбит/сек
Библиотека кодирования : VirtualDub-MPEG2 build 24600/release
Видео
Идентификатор : 0
Формат : MPEG-4 Visual
Параметр BVOP формата : 1
Параметр QPel формата : Нет
Параметр GMC формата : Без точки перехода
Параметр матрицы формата : Default (H.263)
Режим смешивания : Сжатый битовый поток
Идентификатор кодека : DX50
Идентификатор кодека/Подсказка : DivX 5
Продолжительность : 7 м. 4 с.
Битрейт : 2198 Кбит/сек
Ширина : 704 пикселя
Высота : 528 пикселей
Соотношение сторон : 4:3
Частота кадров : 25,000 кадров/сек
Цветовое пространство : YUV
Субдискретизация насыщенности : 4:2:0
Битовая глубина : 8 бит
Тип развёртки : Прогрессивная
Метод сжатия : С потерями
Бит/(Пиксели*Кадры) : 0.237
Размер потока : 111 Мбайт (89%)
Библиотека кодирования : DivX 5.2.1 (DrDivX 106) (UTC 2004-09-08)
Аудио
Идентификатор : 1
Формат : AC-3
Формат/Информация : Audio Coding 3
Расширение режима : CM (complete main)
Параметр Endianness формата : Big
Идентификатор кодека : 2000
Продолжительность : 7 м. 4 с.
Вид битрейта : Постоянный
Битрейт : 256 Кбит/сек
Каналы : 2 канала
Расположение каналов : Front: L R
Частота : 48,0 КГц
Метод сжатия : С потерями
Размер потока : 13,0 Мбайт (10%)
Выравнивание : Соединение по промежуткам
Продолжительность промежутка : 40 мс. (1,00 видеокадр)
Время предзагрузки промежутка : 512 мс.
-Скриншоты:
-
Яндекс.Метрика
Рейтинг@Mail.ru